<?xml version="1.0" standalone="no"?>
<!DOCTYPE svg PUBLIC "-//W3C//DTD SVG 1.1//EN" "http://www.w3.org/Graphics/SVG/1.1/DTD/svg11.dtd" >
<svg xmlns="http://www.w3.org/2000/svg">
<metadata>Generated by IcoMoon</metadata>
<defs>
<font id="icomoon" horiz-adv-x="1024">
<font-face units-per-em="1024" ascent="960" descent="-64" />
<missing-glyph horiz-adv-x="1024" />
<glyph unicode="&#x20;" horiz-adv-x="512" d="" />
<glyph unicode="&#xe900;" glyph-name="arrow-left" d="M373.959 113.604c-10.22 0-20.455 5.118-25.56 10.22l-322.092 286.302c-10.22 10.22-15.337 25.56-15.337 40.9s5.118 25.56 15.337 35.792l322.092 286.302c15.337 15.337 40.9 10.22 56.24-5.118 5.118-5.118 10.22-15.337 10.22-25.56s-5.118-20.455-15.337-25.56l-296.537-270.963 301.642-265.862c15.337-15.337 15.337-40.9 5.118-56.24-15.337-5.118-25.56-10.22-35.792-10.22zM967.023 486.825h-838.466c-25.56 0-40.9-15.337-40.9-35.792v-10.22c0-20.455 15.337-40.9 40.9-40.9h843.581c20.455 0 40.9 15.337 40.9 40.9v10.22c-5.118 20.455-20.455 35.792-46.011 35.792z" />
<glyph unicode="&#xe901;" glyph-name="arrow-top" d="M177.604 586.041c0 10.22 5.118 20.455 10.22 25.56l286.302 322.092c10.22 10.22 25.56 15.337 40.9 15.337s25.56-5.118 35.792-15.337l286.302-322.092c15.337-15.337 10.22-40.9-5.118-56.24-5.118-5.118-15.337-10.22-25.56-10.22s-20.455 5.118-25.56 15.337l-270.963 296.537-265.862-301.642c-15.337-15.337-40.9-15.337-56.24-5.118-5.118 15.337-10.22 25.56-10.22 35.792zM550.825-7.023v838.466c0 25.56-15.337 40.9-35.792 40.9h-10.22c-20.455 0-40.9-15.337-40.9-40.9v-843.581c0-20.455 15.337-40.9 40.9-40.9h10.22c20.455 5.118 35.792 20.455 35.792 46.011z" />
<glyph unicode="&#xe902;" glyph-name="arrow-right" d="M650.041 782.396c10.22 0 20.455-5.118 25.56-10.22l322.092-286.302c10.22-10.22 15.337-25.56 15.337-40.9s-5.118-25.56-15.337-35.792l-322.092-286.302c-15.337-15.337-40.9-10.22-56.24 5.118-5.118 5.118-10.22 15.337-10.22 25.56s5.118 20.455 15.337 25.56l296.537 270.963-301.642 265.862c-15.337 15.337-15.337 40.9-5.118 56.24 15.337 5.118 25.56 10.22 35.792 10.22zM56.977 409.175h838.466c25.56 0 40.9 15.337 40.9 35.792v10.22c0 20.455-15.337 40.9-40.9 40.9h-843.581c-20.455 0-40.9-15.337-40.9-40.9v-10.22c5.118-20.455 20.455-35.792 46.011-35.792z" />
<glyph unicode="&#xe903;" glyph-name="expand" horiz-adv-x="1485" d="M1402.88 560.64c-15.36 0-30.72 15.36-30.72 30.72v230.4c0 15.36-15.36 30.72-30.72 30.72h-348.16c-15.36 0-30.72 15.36-30.72 30.72s25.6 25.6 40.96 25.6h348.16c40.96 0 81.92-40.96 81.92-87.040v-230.4c0-15.36-15.36-30.72-30.72-30.72zM81.92 560.64c-15.36 0-30.72 15.36-30.72 30.72v230.4c0 46.080 40.96 87.040 87.040 87.040h348.16c10.24 0 25.6-15.36 25.6-30.72s-15.36-25.6-30.72-25.6h-343.040c-15.36 0-30.72-15.36-30.72-30.72v-230.4c0-15.36-10.24-30.72-25.6-30.72zM1003.52-12.8c-15.36 0-30.72 15.36-30.72 30.72s15.36 30.72 30.72 30.72h348.16c15.36 0 30.72 15.36 30.72 30.72v230.4c0 15.36 15.36 30.72 30.72 30.72s30.72-15.36 30.72-30.72v-230.4c0-46.080-40.96-87.040-87.040-87.040h-353.28zM138.24-12.8c-46.080 0-87.040 40.96-87.040 87.040v230.4c0 15.36 15.36 30.72 30.72 30.72s30.72-15.36 30.72-30.72v-230.4c0-15.36 15.36-30.72 30.72-30.72h348.16c15.36 0 30.72-15.36 30.72-30.72s-25.6-25.6-40.96-25.6h-343.040zM281.6 304.64c0-46.080 40.96-87.040 87.040-87.040h747.52c46.080 0 87.040 40.96 87.040 87.040v286.72c0 46.080-40.96 87.040-87.040 87.040h-747.52c-46.080 0-87.040-40.96-87.040-87.040v-286.72zM337.92 591.36c0 15.36 15.36 30.72 30.72 30.72h747.52c15.36 0 30.72-15.36 30.72-30.72v-286.72c0-15.36-15.36-30.72-30.72-30.72h-747.52c-15.36 0-30.72 15.36-30.72 30.72v286.72z" />
<glyph unicode="&#xe904;" glyph-name="pointer-right" d="M281.094-28.575c-14.629 0-29.257 7.314-43.886 21.943-7.314 7.314-14.629 21.943-14.629 36.571s7.314 29.257 21.943 36.571l431.543 380.343-431.543 380.343c-7.314 14.629-14.629 21.943-14.629 36.571s7.314 29.257 14.629 36.571c14.629 29.257 51.2 29.257 73.143 14.629l460.8-409.6c29.257-29.257 29.257-73.143 7.314-102.4l-7.314-7.314-460.8-409.6c-7.314-7.314-21.943-14.629-36.571-14.629z" />
<glyph unicode="&#xe905;" glyph-name="pointer-bottom" d="M35.425 678.906c0 14.629 7.314 29.257 21.943 43.886 7.314 7.314 21.943 14.629 36.571 14.629s29.257-7.314 36.571-21.943l380.343-431.543 380.343 431.543c14.629 7.314 21.943 14.629 36.571 14.629s29.257-7.314 36.571-14.629c29.257-14.629 29.257-51.2 14.629-73.143l-409.6-460.8c-29.257-29.257-73.143-29.257-102.4-7.314l-7.314 7.314-409.6 460.8c-7.314 7.314-14.629 21.943-14.629 36.571z" />
<glyph unicode="&#xe906;" glyph-name="menu" horiz-adv-x="1434" d="M34.133 857.6c0 37.693 30.574 68.267 68.267 68.267h1228.8c37.69 0 68.267-30.574 68.267-68.267s-30.577-68.267-68.267-68.267h-1228.8c-37.693 0-68.267 30.574-68.267 68.267zM43.325 488.030c5.477 10.406 18.959 28.237 42.907 28.237h646.734c23.948 0 37.431-17.831 42.912-28.237 6.308-11.992 9.189-26.202 9.189-40.030s-2.881-28.037-9.189-40.030c-5.482-10.406-18.964-28.237-42.912-28.237h-646.734c-23.947 0-37.43 17.831-42.907 28.237-6.312 11.992-9.192 26.202-9.192 40.030s2.88 28.037 9.192 40.030zM34.133 38.4c0 37.69 30.574 68.267 68.267 68.267h1228.8c37.69 0 68.267-30.577 68.267-68.267s-30.577-68.267-68.267-68.267h-1228.8c-37.693 0-68.267 30.577-68.267 68.267z" />
<glyph unicode="&#xe907;" glyph-name="close" d="M46.521 2.755c-22.343 22.345-22.343 58.617 0 80.955l364.287 364.289-364.287 364.287c-22.343 22.343-22.343 58.609 0 80.953s58.61 22.343 80.953 0l364.287-364.287 404.762 404.764c22.345 22.343 58.609 22.343 80.955 0s22.345-58.609 0-80.953l-404.764-404.763 404.764-404.767c22.345-22.338 22.345-58.609 0-80.947-22.345-22.345-58.609-22.345-80.955 0l-404.762 404.761-364.287-364.291c-22.262-22.257-58.61-22.338-80.953 0z" />
<glyph unicode="&#xe908;" glyph-name="health" d="M623.322 246.282c-18.85 0-35.581 12.7-40.749 30.84l-54.813 192.394-65.234-130.84c-3.303-6.625-8.259-12.276-14.401-16.353-6.949-4.672-15.038-7.137-23.428-7.137-2.796 0-5.593 0.297-8.344 0.852-11.098 2.208-20.673 8.665-26.94 18.097l-47.867 72.216-39.224-52.507c-7.962-10.618-20.63-16.99-33.886-16.99h-243.567c-11.692 0-21.18 9.516-21.18 21.24s9.488 21.24 21.18 21.24h243.567l39.224 52.42c7.962 10.621 20.63 16.993 33.93 16.993 9.193 0 17.961-2.931 25.332-8.453 3.812-2.889 7.158-6.372 9.825-10.408l47.909-72.26 65.192 130.883c5.043 10.151 13.724 17.712 24.485 21.323 4.362 1.443 8.853 2.208 13.427 2.208 6.481 0 13.045-1.571 18.935-4.502 10.591-5.312 18.553-14.911 21.774-26.298l54.811-192.394 33.339 66.823c7.16 14.486 21.687 23.491 37.87 23.491h304.65c11.692 0 21.179-9.516 21.179-21.24s-9.488-21.24-21.179-21.24h-304.607l-33.339-66.906c-5.293-10.621-14.911-18.606-26.305-21.835-3.77-1.106-7.668-1.658-11.565-1.658zM105.816 421.853c-8.514 0-16.18 5.099-19.486 12.958-25.882 61.13-39.437 125.741-40.284 192.137 0 196.217 113.395 292.692 225.732 301.315 6.187 0.467 12.369 0.722 18.469 0.722 114.033 0 186.847-82.879 221.327-169.496 17.834 46.559 44.691 85.981 78.704 115.25 42.654 36.703 96.156 56.923 150.587 56.923 5.762 0 11.52-0.211 17.282-0.68 109.414-8.411 219.801-97.833 219.801-278.672-2.075-75.871-21.095-151.444-55.025-218.775-3.598-7.177-10.886-11.639-18.935-11.639-3.261 0-6.564 0.762-9.488 2.25-10.464 5.312-14.658 18.099-9.403 28.547 31.134 61.767 48.586 131.010 50.451 200.211 0 153.142-90.778 228.756-180.705 235.682-5.253 0.383-10.376 0.594-15.46 0.594-119.199 0-190.617-111.468-206.501-215.035-1.525-10.451-10.336-18.055-20.885-18.055s-19.36 7.564-20.925 18.012c-15.674 102.252-85.313 212.359-201.123 212.359-4.869 0-9.869-0.211-14.908-0.594-92.894-7.095-186.637-89.846-186.637-258.663 0.762-60.621 13.174-119.796 36.896-175.784 4.574-10.79-0.465-23.278-11.225-27.868-2.669-1.146-5.421-1.698-8.259-1.698zM511.068-35.661c-8.853 0-17.322 2.677-24.483 7.816-113.311 80.925-213.999 177.824-299.269 288.018-7.16 9.262-5.465 22.599 3.727 29.823 3.727 2.887 8.345 4.46 13.004 4.46 6.609 0 12.708-3.017 16.732-8.198 82.729-106.923 180.409-200.933 290.332-279.437 100.266 82.626 191.551 176.633 271.184 279.437 4.067 5.226 10.167 8.198 16.731 8.198 4.661 0 9.278-1.573 12.963-4.46 4.492-3.484 7.33-8.496 8.049-14.146s-0.806-11.214-4.277-15.677c-81.585-105.307-175.073-201.612-277.835-286.234-7.582-6.201-17.112-9.599-26.857-9.599z" />
<glyph unicode="&#xe909;" glyph-name="logo" horiz-adv-x="3119" d="M786.096 179.057c0-3.77-0.866-7.159-2.676-10.152-1.894-3.072-5.353-5.432-10.152-7.312-4.883-1.894-11.413-3.319-19.596-4.575-8.029-1.103-18.344-1.569-30.85-1.569-12.041 0-22.277 0.465-30.222 1.569-8.183 1.257-14.639 2.681-19.358 4.575-4.724 1.88-8.024 4.24-10.156 7.312-1.96 2.993-2.909 6.381-2.909 10.152v591.92h-0.94l-189.818-591.446c-1.425-4.892-3.629-8.979-6.693-12.051-2.99-3.221-7.086-5.744-12.354-7.629-5.12-1.811-11.805-3.072-19.988-3.617-8.028-0.47-17.793-0.787-29.286-0.787-11.485 0-21.324 0.465-29.426 1.331-8.028 1.024-14.639 2.453-19.915 4.492-5.268 2.039-9.364 4.561-12.354 7.633-3.064 2.993-5.038 6.54-6.136 10.626l-183.059 591.446h-1.171v-591.92c0-3.77-0.877-7.159-2.679-10.152-1.966-3.072-5.275-5.432-10.469-7.312-5.038-1.894-11.567-3.319-19.44-4.575-7.946-1.103-18.178-1.569-30.613-1.569-12.116 0-22.192 0.465-30.376 1.569-8.028 1.257-14.639 2.681-19.513 4.575-4.727 1.88-8.11 4.24-10.076 7.312-1.892 2.993-2.753 6.381-2.753 10.152v648.155c0 19.128 4.563 33.677 13.607 43.835 9.134 10.142 21.258 15.229 36.446 15.229h87.040c15.499 0 28.885-1.499 40.051-4.252 11.1-2.843 20.62-7.479 28.73-14.049 8.102-6.578 14.876-15.229 20.381-25.854 5.268-10.699 10.068-23.921 14.008-39.625l141.812-433.469h1.893l146.767 432.289c4.408 15.778 9.207 29.082 14.485 39.936 5.194 10.863 11.255 19.636 18.097 26.444 7.010 6.693 15.113 11.485 24.632 14.328 9.37 2.753 20.308 4.252 32.898 4.252h89.563c9.044 0 16.919-1.344 23.529-4.022 6.53-2.63 12.041-6.406 16.212-11.526 4.17-5.038 7.317-11.174 9.519-18.53 2.206-7.234 3.309-15.663 3.309-24.986v-648.155zM1182.728 158.754l-54.542-177.557c-2.984-9.425-11.329-16.212-24.781-20.298-13.54-4.161-33.219-6.218-59.187-6.218-13.535 0-24.315 0.712-32.424 1.978-8.183 1.331-14.164 3.454-18.26 6.447-4.017 3.072-6.135 6.772-6.605 11.264-0.237 4.478 0.707 9.993 3.137 16.286l60.211 168.099c-4.487 2.285-8.42 5.739-11.878 10.384-3.547 4.72-6.298 9.593-7.955 14.95l-155.271 460.974c-4.324 13.148-6.609 23.101-6.609 30.106 0 6.848 2.122 12.353 6.060 16.285 4.096 3.9 10.854 6.611 20.541 8.184 9.528 1.466 22.346 2.212 38.167 2.212 14.555 0 25.977-0.279 34.472-0.876 8.336-0.582 14.95-1.999 19.675-4.203 4.645-2.204 8.341-5.702 10.626-10.388 2.36-4.686 4.72-11.289 7.080-19.988l106.324-335.567h1.489l97.033 342.333c2.048 9.756 4.729 16.212 8.029 19.398 3.072 3.154 8.42 5.505 15.9 7.078 7.396 1.466 20.382 2.212 38.879 2.212 14.559 0 26.517-0.746 36.198-2.212 9.523-1.573 16.761-4.366 21.253-8.495 4.482-4.129 6.758-9.634 6.758-16.565 0-6.922-1.247-15.114-3.924-24.477l-150.398-491.347zM1701.822 632.673c0-13.492-0.228-24.551-0.94-33.137-0.707-8.61-1.648-15.335-2.918-20.258-1.48-4.883-3.226-8.266-5.423-10.158-2.127-1.811-4.957-2.753-8.341-2.753-2.676 0-5.748 0.631-9.142 1.933-3.281 1.376-7.14 2.711-11.32 4.243-4.245 1.458-8.89 2.876-13.852 4.211-5.111 1.335-10.71 1.925-16.761 1.925-7.159 0-14.164-1.606-21.253-4.751-7.084-3.195-14.48-8.159-22.025-14.918-7.554-6.725-15.593-15.737-23.766-26.952-8.266-11.215-17.087-25.108-26.536-41.632v-312.548c0-3.705-1.098-7.005-3.063-9.84-2.122-2.835-5.506-5.194-10.394-7.005-4.878-1.894-11.325-3.226-19.507-4.25-8.029-0.87-18.344-1.336-30.776-1.336-12.591 0-22.826 0.465-30.85 1.336-8.187 1.024-14.713 2.355-19.596 4.25-4.803 1.811-8.341 4.17-10.305 7.005-2.132 2.835-3.072 6.135-3.072 9.84v501.455c0 3.744 0.94 7.053 2.523 9.88 1.643 2.752 4.715 5.161 9.123 7.004 4.408 1.851 9.998 3.268 16.919 4.178 6.931 0.942 15.579 1.458 26.056 1.458 10.854 0 19.745-0.516 26.903-1.458 7.089-0.909 12.516-2.327 16.458-4.178 3.933-1.843 6.609-4.252 8.257-7.004 1.736-2.826 2.597-6.136 2.597-9.88v-62.398c11.729 18.768 22.905 34.193 33.373 46.391 10.463 12.189 20.382 21.873 29.901 28.959 9.374 7.119 18.735 12.124 28.328 14.917 9.29 2.794 18.809 4.17 28.258 4.17 4.403 0 9.207-0.279 14.168-0.787 5.115-0.59 10.301-1.54 15.658-2.835 5.357-1.352 10.156-2.834 14.243-4.53 4.096-1.647 6.931-3.457 8.806-5.317 1.894-1.917 3.156-3.932 4.017-6.128 0.875-2.318 1.662-5.39 2.374-9.371 0.624-3.891 1.089-9.798 1.485-17.662 0.237-7.872 0.391-18.579 0.391-32.072zM2017.167 390.951h-48.556c-20.61 0-38.093-1.727-52.722-5.078-14.485-3.342-26.214-8.411-35.342-15.146-9.132-6.735-15.811-14.876-19.987-24.511-4.161-9.528-6.377-20.461-6.377-32.866 0-20.964 6.139-37.497 18.022-49.455 11.971-11.962 28.57-17.948 49.892-17.948 17.794 0 34.243 5.036 49.273 15.155 15.034 10.068 30.296 24.902 45.796 44.381v85.467zM2142.142 176.232c0-5.357-1.736-9.453-5.036-12.442-3.468-2.984-8.662-5.041-15.984-6.456-7.224-1.261-17.939-1.885-32.102-1.885-15.188 0-26.21 0.624-33.21 1.885-6.917 1.415-11.809 3.472-14.634 6.456-2.844 2.988-4.25 7.084-4.25 12.442v39.885c-18.581-22.109-39.75-39.424-63.595-51.698-23.682-12.437-50.129-18.572-79.169-18.572-24.003 0-45.954 3.458-65.955 10.389-20.14 6.921-37.45 17.236-52.247 30.925-14.564 13.624-25.968 30.613-33.987 50.846-8.192 20.261-12.279 43.911-12.279 70.819 0 29.314 5.194 54.658 15.425 76.218 10.389 21.565 25.647 39.35 46.187 53.397 20.382 14.010 45.717 24.446 76.102 31.246 30.213 6.733 65.634 10.108 105.765 10.108h43.995v30.343c0 15.786-1.499 29.516-4.254 41.321-2.979 11.756-7.624 21.635-14.238 29.507-6.535 7.873-15.43 13.697-26.359 17.433-10.947 3.776-24.404 5.587-40.69 5.587-21.169 0-40.215-2.597-56.893-7.873-16.77-5.186-31.567-11.018-44.311-17.433-12.823-6.332-23.464-12.116-32.107-17.391-8.495-5.227-15.672-7.832-21.020-7.832-3.686 0-6.921 1.27-9.914 3.859-2.751 2.638-5.111 6.373-7 11.297-1.894 4.874-3.309 10.863-4.408 17.981-0.95 7.119-1.336 14.959-1.336 23.609 0 11.616 0.777 20.775 2.434 27.541 1.736 6.734 4.808 12.829 9.528 18.26 4.799 5.464 13.14 11.412 24.944 17.981 11.72 6.57 25.656 12.673 41.393 18.301 15.9 5.62 33.294 10.191 51.935 13.771 18.744 3.621 38.023 5.316 57.926 5.316 35.416 0 65.708-3.785 90.899-11.493 25.027-7.676 45.731-19.439 61.85-35.414 16.142-15.942 28.025-36.471 35.505-61.588 7.308-25.101 11.092-54.927 11.092-89.366v-337.281zM2396.652 177.875c0-3.7-1.182-7-3.072-9.835-2.048-2.835-5.506-5.194-10.389-7.005-4.962-1.894-11.329-3.23-19.437-4.254-8.187-0.866-18.409-1.331-30.925-1.331-12.446 0-22.668 0.465-30.85 1.331-8.104 1.024-14.643 2.36-19.517 4.254-4.799 1.811-8.346 4.17-10.314 7.005-2.039 2.835-3.072 6.135-3.072 9.835v739.293c0 3.727 1.033 7.078 3.072 10.101 1.969 3.039 5.516 5.513 10.314 7.602 4.873 2.081 11.413 3.662 19.517 4.76 8.183 1.139 18.404 1.688 30.85 1.688 12.516 0 22.737-0.549 30.925-1.688 8.108-1.098 14.476-2.679 19.437-4.76 4.883-2.089 8.341-4.563 10.389-7.602 1.89-3.023 3.072-6.373 3.072-10.101v-739.293zM2651.153 177.875c0-3.7-1.024-7-3.146-9.835-1.885-2.835-5.423-5.194-10.305-7.005-4.883-1.894-11.422-3.23-19.521-4.254-8.020-0.866-18.409-1.331-30.85-1.331-12.428 0-22.742 0.465-30.925 1.331-7.95 1.024-14.476 2.36-19.358 4.254-4.957 1.811-8.425 4.17-10.389 7.005-2.048 2.835-3.072 6.135-3.072 9.835v500.361c0 3.703 1.024 6.963 3.072 9.797 1.964 2.867 5.432 5.276 10.389 7.324 4.883 2.040 11.408 3.621 19.358 4.792 8.183 1.155 18.497 1.704 30.925 1.704 12.442 0 22.831-0.549 30.85-1.704 8.099-1.172 14.639-2.753 19.521-4.792 4.883-2.048 8.42-4.457 10.305-7.324 2.122-2.834 3.146-6.095 3.146-9.797v-500.361zM2660.844 849.125c0-28.484-5.278-48.161-15.746-59.032-10.552-10.854-29.91-16.314-58.238-16.314-28.565 0-48.002 5.23-58.005 15.732-9.914 10.543-14.871 29.434-14.871 56.828 0 28.434 5.115 48.234 15.425 59.294 10.314 11.059 29.831 16.556 58.47 16.556 28.332 0 47.546-5.341 57.684-15.974 10.161-10.691 15.281-29.737 15.281-57.090zM3095.881 319.531c0-28.449-4.803-53.63-14.485-75.315-9.602-21.709-23.133-39.978-40.681-54.533-17.548-14.559-38.256-25.577-62.25-32.903-24.003-7.312-49.981-10.934-77.917-10.934-16.84 0-32.982 1.415-48.398 4.245-15.267 2.839-29.040 6.307-41.155 10.715-12.2 4.24-22.281 8.639-30.385 13.21-8.108 4.408-13.926 8.662-17.627 12.6-3.77 3.924-6.693 10.068-8.653 18.572-2.039 8.341-3.072 20.848-3.072 37.302 0 10.859 0.321 19.633 1.033 26.173 0.624 6.6 1.648 11.837 3.063 15.728 1.336 3.98 3.063 6.568 5.036 7.838 2.043 1.368 4.566 2.001 7.554 2.001 3.696 0 9.128-2.318 16.449-7.038 7.317-4.645 16.286-9.807 27.15-15.425 10.78-5.627 23.37-10.873 37.693-15.695 14.243-4.925 30.613-7.368 48.714-7.368 11.567 0 21.644 1.336 30.697 4.017 8.89 2.565 16.607 6.33 23.208 11.171 6.693 4.845 11.66 11.059 14.96 18.572 3.384 7.471 5.036 16.1 5.036 25.856 0 11.213-3.146 20.899-9.37 28.965-6.293 8.052-14.476 15.067-24.706 21.048-10.305 6.018-21.876 11.646-34.942 16.873-12.982 5.278-26.368 11.059-39.978 17.394-13.619 6.423-26.992 13.698-40.057 21.96-12.912 8.257-24.557 18.334-34.872 30.376-10.305 11.971-18.562 26.405-24.627 43.289-6.456 16.802-9.435 37.069-9.435 60.719 0 23.962 4.087 45.998 12.497 66.060 8.588 20.070 20.629 37.184 36.524 51.397 15.816 14.279 35.174 25.379 57.991 33.243 22.747 7.872 48.333 11.731 76.66 11.731 14.089 0 27.853-1.114 41.165-3.301 13.293-2.253 25.409-5.087 36.189-8.429 10.789-3.424 19.917-7.078 27.397-11.018 7.233-3.932 12.67-7.275 15.9-10.109 3.221-2.834 5.432-5.587 6.758-8.429 1.345-2.785 2.439-6.169 3.156-10.142 0.545-3.932 1.178-8.815 1.727-14.606 0.465-5.816 0.787-13.017 0.787-21.643 0-10.101-0.321-18.366-0.787-24.707-0.549-6.414-1.424-11.444-2.513-15.147-1.182-3.777-2.909-6.333-4.883-7.668-2.048-1.261-4.329-1.974-7.168-1.974-2.909 0-7.713 1.974-14.085 5.939-6.372 3.899-14.401 8.151-24.083 12.632-9.519 4.489-20.61 8.7-33.359 12.673-12.674 3.9-26.992 5.898-43.297 5.898-11.399 0-21.322-1.335-29.733-3.932-8.588-2.629-15.425-6.373-20.783-11.297-5.432-4.792-9.523-10.543-12.125-17.105-2.755-6.578-4.091-13.623-4.091-21.135 0-11.608 3.23-21.324 9.686-29.164 6.298-7.864 14.792-14.828 25.181-20.808 10.543-5.989 22.356-11.608 35.724-16.851 13.307-5.268 26.764-10.969 40.616-17.145 13.535-6.228 27.071-13.503 40.29-21.686 13.377-8.225 25.349-18.376 35.733-30.334 10.538-12.004 18.893-26.41 25.256-43.017 6.381-16.673 9.686-36.436 9.686-59.336z" />
<glyph unicode="&#xe90a;" glyph-name="pointer-top" d="M988.575 217.094c0-14.629-7.314-29.257-21.943-43.886-7.314-7.314-21.943-14.629-36.571-14.629s-29.257 7.314-36.571 21.943l-380.343 431.543-380.343-431.543c-14.629-7.314-21.943-14.629-36.571-14.629s-29.257 7.314-36.571 14.629c-29.257 14.629-29.257 51.2-14.629 73.143l409.6 460.8c29.257 29.257 73.143 29.257 102.4 7.314l7.314-7.314 409.6-460.8c7.314-7.314 14.629-21.943 14.629-36.571z" />
<glyph unicode="&#xe90b;" glyph-name="user" horiz-adv-x="843" d="M180.559 719.059c0-132.862 108.080-240.941 240.941-240.941s240.941 108.080 240.941 240.941c0 132.862-108.080 240.941-240.941 240.941s-240.941-108.080-240.941-240.941zM249.399 719.059c0 94.862 77.17 172.101 172.101 172.101 94.862 0 172.101-77.239 172.101-172.101s-77.239-172.101-172.101-172.101c-94.931 0-172.101 77.239-172.101 172.101zM10.826-50.911c8.011-8.27 19.395-13.089 31.201-13.089h758.943c11.806 0 23.106 4.741 31.202 13.089 7.927 8.355 11.89 19.516 10.794 30.762-28.588 295.472-209.721 438.031-421.466 438.031s-392.965-142.559-421.467-438.031c-1.096-11.246 2.867-22.408 10.794-30.762zM421.416 337.571c155.837 0 295.906-90.757 331.999-321.259h-663.995c36.092 230.502 176.16 321.259 331.996 321.259z" />
<glyph unicode="&#xe90c;" glyph-name="woman" d="M618.668-64c9.216 0 17.321 5.844 20.265 14.592l32.94 98.816c2.9 8.748 11.008 14.592 20.224 14.592h66.476c9.216 0 17.364-5.844 20.265-14.592l32.94-98.816c2.9-8.748 11.008-14.592 20.224-14.592 2.304 0 4.564 0.384 6.74 1.152 5.42 1.792 9.772 5.588 12.332 10.668 2.56 5.076 2.944 10.88 1.152 16.297l-32.896 98.775c-8.748 26.196-33.152 43.776-60.756 43.776h-11.904v121.088c22.016-5.847 43.392-12.672 64-20.396 60.372-22.784 101.248-49.024 124.8-67.028 15.488-11.948 24.66-30.807 24.532-50.476v-132.524c0-11.776 9.556-21.332 21.332-21.332s21.335 9.556 21.335 21.332v132.396c0.212 32.812-15.191 64.384-41.26 84.48-19.072 14.548-49.748 35.072-92.672 54.996l32.556 16.256c10.196 5.12 17.792 13.868 21.376 24.704 3.584 10.796 2.772 22.359-2.348 32.556-1.58 3.156-3.54 6.1-5.76 8.66-53.292 62.208-82.644 141.568-82.56 223.488v105.132c0 176.427-143.572 320-320 320s-320-143.573-320-320v-105.132c0-81.876-29.354-161.193-82.688-223.36-15.317-17.833-13.269-44.841 4.566-60.201 2.688-2.304 5.717-4.268 8.874-5.847l32.64-16.34c-34.645-16.044-66.389-34.86-92.885-54.996-26.027-20.055-41.387-51.584-41.173-84.268v-132.524c0-11.776 9.557-21.332 21.333-21.332s21.333 9.556 21.291 21.332v132.652c-0.128 19.584 9.045 38.4 24.448 50.26 23.594 17.92 64.256 44.032 124.202 66.688 0.627 0.197 1.181 0.428 1.664 0.63l0.128 0.054c20.096 7.552 41.216 14.292 62.932 20.052v-123.817c-37.076-9.6-63.999-43.564-63.999-82.519 0-47.060 38.272-85.332 85.334-85.332 47.060 0 85.332 38.272 85.332 85.332 0 38.956-26.924 72.919-64 82.519v133.801c52.908 10.88 110.208 16.94 170.668 18.092v-298.412c0-11.776 9.556-21.332 21.332-21.332s21.332 9.556 21.332 21.332v298.412c60.46-1.108 117.76-7.168 170.668-18.004v-131.072h-11.904c-27.604 0-52.012-17.58-60.716-43.776l-32.937-98.816c-1.836-5.42-1.408-11.223 1.152-16.3s6.912-8.876 12.329-10.668c2.176-0.724 4.439-1.108 6.743-1.108zM298.668 64c23.508 0 42.665-19.116 42.665-42.668s-19.156-42.665-42.665-42.665c-23.511 0-42.668 19.113-42.668 42.665s19.156 42.668 42.668 42.668zM234.667 640c0 152.917 124.417 277.333 277.333 277.333s277.332-124.416 277.332-277.333v-105.132c-0.084-92.073 32.896-181.332 92.844-251.264l-65.836-32.937c-22.057 7.936-45.44 15.017-69.673 21.076v5.588c0 11.776-9.559 21.335-21.335 21.335-10.452 0-19.2-7.552-20.992-17.495-59.732 11.607-124.372 17.495-192.34 17.495-67.884 0-132.524-5.888-192.34-17.58-1.792 9.984-10.496 17.58-20.992 17.58-11.776 0-21.335-9.559-21.335-21.335v-5.673c-24.191-6.060-47.53-13.1-69.546-21.036l-66.133 33.068c59.989 69.888 93.013 159.104 93.013 251.177v105.132zM512 448.172c-27.648 0-54.912 9.044-76.8 25.472-4.564 3.412-7.508 8.404-8.32 14.036s0.64 11.22 4.052 15.788c4.012 5.332 10.412 8.532 17.068 8.532 4.652 0 9.088-1.492 12.8-4.268 14.548-10.921 32.768-16.937 51.2-16.937s36.652 6.016 51.2 16.937c3.668 2.775 8.108 4.268 12.8 4.268 6.656 0 13.056-3.2 17.068-8.532 3.412-4.567 4.864-10.156 4.052-15.831-0.812-5.632-3.756-10.624-8.32-14.036-21.888-16.428-49.152-25.428-76.8-25.428zM597.332 565.332c17.674 0 32 14.328 32 32 0 17.674-14.326 32-32 32-17.672 0-32-14.326-32-32 0-17.672 14.328-32 32-32zM426.668 565.332c17.672 0 32 14.328 32 32 0 17.674-14.328 32-32 32-17.674 0-32-14.326-32-32 0-17.672 14.326-32 32-32zM277.332 554.668c0-129.408 105.26-234.668 234.668-234.668s234.668 105.26 234.668 234.668v107.732c0 6.016-2.56 11.82-7.040 15.828-3.927 3.543-9.004 5.504-14.336 5.504-0.384 0-1.792-0.084-2.135-0.128-6.185-0.596-12.544-0.937-19.2-0.937-73.088 0-140.884 42.452-172.756 108.202-3.456 7.083-10.796 11.52-19.2 11.52s-15.744-4.394-19.2-11.52c-31.916-65.706-99.712-108.202-173.824-108.202-5.716 0-11.988 0.34-18.176 0.98-0.172 0-0.607 0.020-1.044 0.044-0.438 0.020-0.876 0.041-1.047 0.041-5.332 0-10.409-1.961-14.336-5.504-4.48-4.009-7.040-9.812-7.040-15.828v-107.732zM512 362.668c-105.856 0-192 86.144-192 192v85.332h0.044c76.16 0 148.224 37.844 191.956 99.755 43.732-61.91 115.796-99.755 191.7-99.755h0.3v-85.332c0-105.856-86.144-192-192-192z" />
<glyph unicode="&#xe90d;" glyph-name="pointer-left" d="M742.906 924.575c14.629 0 29.257-7.314 43.886-21.943 7.314-7.314 14.629-21.943 14.629-36.571s-7.314-29.257-21.943-36.571l-431.543-380.343 431.543-380.343c7.314-14.629 14.629-21.943 14.629-36.571s-7.314-29.257-14.629-36.571c-14.629-29.257-51.2-29.257-73.143-14.629l-460.8 409.6c-29.257 29.257-29.257 73.143-7.314 102.4l7.314 7.314 460.8 409.6c7.314 7.314 21.943 14.629 36.571 14.629z" />
<glyph unicode="&#xe90e;" glyph-name="heart" horiz-adv-x="1210" d="M572.56-19.456c8.751-8.471 20.247-13.126 32.396-13.126h0.791c12.428 0.186 24.017 5.213 32.675 14.15l439.017 452.096c89.651 88.066 111.756 222.582 54.97 334.803-13.638 26.438-31.139 50.641-52.038 71.866-55.249 56.18-129.117 87.459-208.849 88.064-78.801 0-152.716-29.976-207.732-84.154l-58.787-53.62-58.135 53.015c-21.225 20.853-45.428 38.353-71.866 51.991-41.563 21.411-88.108 32.722-134.654 32.722-111.29 0-212.015-61.301-262.889-160.070-56.785-112.128-34.723-246.551 54.691-334.245l440.411-453.492zM118.931 747.149c42.775 83.084 127.628 134.703 221.37 134.703 39.703 0 77.871-9.263 113.385-27.555 22.293-11.497 42.726-26.345 61.21-44.451l74.468-67.91c4.282-3.91 9.872-6.097 15.69-6.097s11.404 2.188 15.686 6.097l75.12 68.515c46.778 46.033 108.549 71.4 173.992 71.4h2.323c66.378-0.559 128.563-26.903 175.109-74.193 17.594-17.874 32.344-38.214 43.748-60.37 47.523-93.975 28.905-206.708-46.545-280.811l-439.482-452.515-439.806 452.934c-75.217 73.73-93.789 186.417-46.266 280.252z" />
<glyph unicode="&#xe90f;" glyph-name="more" d="M489.739-64c-24.576 0-44.522 19.945-44.522 44.521v400.697h-400.696c-24.576 0-44.522 19.945-44.522 44.521s19.946 44.521 44.522 44.521h400.696v445.218c0 24.576 19.946 44.522 44.522 44.522s44.521-19.946 44.521-44.522v-445.218h445.218c24.576 0 44.521-19.945 44.521-44.521s-19.945-44.521-44.521-44.521h-445.218v-400.697c0-24.485-19.945-44.521-44.521-44.521z" />
<glyph unicode="&#xe910;" glyph-name="search" horiz-adv-x="1081" d="M951.211-51.541c8.107-8.021 18.773-12.459 30.208-12.459s22.187 4.352 30.208 12.459c8.021 8.107 12.459 18.773 12.459 30.208s-4.437 22.101-12.459 30.123l-250.709 250.709c62.976 76.8 97.451 172.373 97.451 271.36 0 236.629-192.512 429.141-429.141 429.141s-429.227-192.512-429.227-429.141c0-236.629 192.512-429.141 429.141-429.141 98.987 0 194.56 34.475 271.36 97.451l250.709-250.709zM85.419 530.859c0 189.611 154.197 343.808 343.808 343.808s343.808-154.197 343.808-343.808c0-189.611-154.197-343.808-343.808-343.808s-343.808 154.197-343.808 343.808z" />
<glyph unicode="&#xe911;" glyph-name="camera" horiz-adv-x="1257" d="M1115.234 845.374c39.405 0 74.031-15.522 99.105-41.791 26.27-25.075 41.793-59.702 41.793-99.106v-594.63c0-38.209-16.719-74.031-41.793-99.109-25.074-26.266-59.699-41.789-99.105-41.789h-974.337c-38.209 0-74.031 16.714-99.105 41.789-26.269 25.079-41.791 59.704-41.791 99.109v594.63c0 38.209 16.717 74.031 41.791 99.106 25.075 26.269 59.702 41.791 99.105 41.791h197.017v2.388c0 29.851 11.94 57.314 32.239 77.612s47.762 32.239 78.807 32.239h358.213c29.85 0 57.311-11.94 77.61-32.239 20.298-19.105 32.242-47.761 32.242-77.612v-2.388h198.209zM1192.848 109.847h1.192v594.63c0 21.493-8.36 40.597-22.686 54.926s-33.434 22.687-54.928 22.687h-230.447c-17.911 0-32.242 14.329-32.242 32.239v34.627c0 13.134-4.776 25.075-13.13 33.433-8.36 8.358-20.298 13.134-33.434 13.134h-357.019c-13.135 0-25.075-4.776-33.433-13.134s-13.135-20.299-13.135-33.433v-34.627c0-17.911-14.328-32.239-32.239-32.239h-230.45c-21.493 0-40.597-8.358-54.926-22.687s-22.687-33.433-22.687-54.926v-594.63c0-21.495 8.358-40.602 22.687-54.928s33.433-22.686 54.926-22.686h974.337c21.495 0 40.597 8.36 54.924 22.686 14.331 14.327 22.691 33.434 22.691 54.928zM420.334 614.927c52.54 52.538 126.57 85.971 207.764 85.971s155.224-33.433 207.76-85.971c52.541-52.538 85.974-126.567 85.974-207.761 0-81.199-32.242-154.033-85.974-207.765-52.536-52.536-126.566-85.969-207.76-85.969s-154.033 32.237-207.764 85.969c-52.538 52.536-85.971 126.566-85.971 207.765 0 81.194 32.239 154.029 85.971 207.761zM628.098 176.714c63.283 0 120.599 26.27 162.388 66.867 41.793 41.789 68.063 99.105 66.867 162.388 0 63.283-25.074 120.598-66.867 162.39-41.789 40.597-99.105 66.866-162.388 66.866s-120.599-25.075-162.392-66.866c-40.595-41.791-66.864-99.106-66.864-162.39s25.075-120.599 66.864-162.388c41.793-40.597 99.109-66.867 162.392-66.867zM1053.142 585.075c32.317 0 58.512 26.195 58.512 58.508s-26.196 58.508-58.512 58.508c-32.312 0-58.508-26.195-58.508-58.508s26.196-58.508 58.508-58.508z" />
<glyph unicode="&#xe912;" glyph-name="minus-solid" horiz-adv-x="896" d="M832 544h-768c-35.34 0-64-28.66-64-64v-64c0-35.34 28.66-64 64-64h768c35.34 0 64 28.66 64 64v64c0 35.34-28.66 64-64 64z" />
<glyph unicode="&#xe913;" horiz-adv-x="1210" d="M582.070 750.536l-181.227 131.305h-160.318l-121.349-134.703-26.084-196.079 213.638-244.911 275.341-292.194 358.298 292.194 176.966 213.025v231.363l-128.219 131.305-117.346 46.546-289.699-177.85z" />
<glyph unicode="&#xe914;" horiz-adv-x="1210" d="M572.881-19.465c8.751-8.471 20.247-13.126 32.396-13.126h0.791c12.428 0.186 24.017 5.213 32.675 14.15l439.017 452.096c89.647 88.064 111.756 222.58 54.97 334.801-13.638 26.438-31.139 50.641-52.038 71.866-55.249 56.18-129.117 87.459-208.849 88.064-78.801 0-152.716-29.975-207.732-84.154l-58.787-53.62-58.135 53.015c-21.225 20.852-45.428 38.353-71.866 51.991-41.566 21.411-88.111 32.722-134.656 32.722-111.29 0-212.015-61.3-262.889-160.070-56.786-112.128-34.723-246.551 54.691-334.243l440.414-453.492zM119.249 747.138c42.775 83.084 127.628 134.703 221.37 134.703 39.703 0 77.871-9.263 113.385-27.555 22.296-11.497 42.729-26.345 61.208-44.451l74.473-67.91c4.282-3.91 9.868-6.097 15.686-6.097s11.404 2.188 15.686 6.097l75.124 68.515c46.778 46.033 108.544 71.401 173.987 71.401h2.327c66.374-0.559 128.559-26.903 175.104-74.193 17.594-17.873 32.349-38.214 43.753-60.369 47.523-93.975 28.905-206.708-46.545-280.809l-439.482-452.515-439.808 452.934c-75.217 73.728-93.789 186.415-46.266 280.25z" />
<glyph unicode="&#xe915;" horiz-adv-x="1210" d="M572.881-19.465l-16.696-16.212 0.251-0.261 0.256-0.247zM606.068-32.591v-23.277l0.349 0.009zM638.743-18.441l-16.696 16.212-0.019-0.019zM1077.76 433.655l-16.314 16.607-0.382-0.396zM1132.73 768.456l20.764 10.508-0.084 0.161zM1080.692 840.322l-16.593-16.318 0.009-0.010zM871.843 928.386l0.177 23.273h-0.177zM664.111 844.232l15.681-17.194 0.33 0.3 0.317 0.313zM605.324 790.612l-15.681-17.196 15.681-14.302 15.681 14.304zM547.188 843.627l-16.31-16.601 0.307-0.303 0.321-0.292zM475.322 895.618l10.668 20.683-0.009 0.006zM77.777 768.27l-20.69 10.657-0.072-0.142zM132.468 434.027l16.7 16.216-0.405 0.4zM119.249 747.138l-20.692 10.653-0.070-0.138zM454.004 854.286l10.666 20.685-0.009 0.005zM515.212 809.835l-16.291-16.623 0.303-0.292 0.307-0.282zM589.684 741.925l15.69 17.186-0.009 0.010zM621.056 741.925l-15.681 17.195-0.009-0.009zM696.18 810.44l15.681-17.195 0.326 0.298 0.317 0.31zM872.495 881.841l0.195 23.273h-0.195zM1047.599 807.647l-16.584-16.326zM1091.351 747.278l20.769 10.503-0.074 0.148zM1044.806 466.469l-16.314 16.607-0.382-0.391zM605.324 13.954l-16.696-16.212 16.696-17.194 16.696 17.194zM165.515 466.888l16.701 16.216-0.411 0.405zM605.277-9.318c-6.097 0-11.79 2.299-16.207 6.572l-32.377-33.438c13.084-12.67 30.385-19.679 48.584-19.679zM606.068-9.318h-0.791v-46.545h0.791zM622.029-2.248c-4.375-4.515-10.086-6.982-16.31-7.075l0.698-46.536c18.627 0.279 36.101 7.866 49.040 21.225zM1061.064 449.866l-439.017-452.096 33.392-32.424 439.017 452.096zM1111.966 757.949c52.21-103.183 31.898-226.734-50.516-307.691l32.619-33.206c96.88 95.171 120.785 240.653 59.425 361.912zM1064.108 823.994c19.247-19.546 35.37-41.84 47.937-66.207l41.365 21.338c-14.704 28.509-33.583 54.622-56.134 77.526zM871.666 905.115c73.593-0.559 141.545-29.365 192.433-81.111l33.187 32.637c-59.611 60.615-139.399 94.366-225.266 95.018zM680.439 827.65c50.572 49.801 118.584 77.463 191.404 77.463v46.546c-84.783 0-164.599-32.288-224.061-90.845zM621.005 773.417l58.787 53.62-31.367 34.389-58.787-53.62zM531.507 826.431l58.135-53.015 31.362 34.392-58.135 53.015zM464.652 874.935c24.368-12.57 46.668-28.697 66.227-47.91l32.619 33.203c-22.896 22.492-48.998 41.368-77.507 56.073zM340.666 905.067c42.82 0 85.714-10.417 123.998-30.138l21.317 41.378c-44.848 23.101-95.045 35.305-145.315 35.305zM98.466 757.613c46.872 90.999 139.598 147.454 242.199 147.454v46.546c-119.979 0-228.702-66.146-283.578-172.686zM148.763 450.644c-82.148 80.565-102.441 204.005-50.224 307.112l-41.524 21.029c-61.354-121.149-37.522-266.556 59.157-361.374zM589.577-3.254l-440.414 453.492-33.39-32.424 440.413-453.492zM340.619 905.114c-102.42 0-195.279-56.455-242.062-147.322l41.383-21.306c38.768 75.3 115.614 122.083 200.679 122.083zM464.66 874.975c-38.796 19.983-80.615 30.138-124.041 30.138v-46.545c35.98 0 70.495-8.369 102.728-24.972zM531.498 826.458c-20.080 19.678-42.398 35.914-66.828 48.513l-21.332-41.37c20.159-10.395 38.71-23.854 55.583-40.389zM605.366 759.122l-74.473 67.91-31.362-34.393 74.473-67.91zM605.37 759.101l0.005 0.011-31.381-34.373c8.532-7.793 19.703-12.184 31.376-12.184zM605.366 759.112l0.005-0.011v-46.545c11.674 0 22.84 4.391 31.376 12.184zM680.499 827.635l-75.124-68.515 31.362-34.391 75.124 68.515zM870.167 905.114c-71.578 0-139.199-27.787-190.31-78.086l32.647-33.176c42.445 41.768 98.355 64.716 157.663 64.716zM872.495 905.114h-2.327v-46.545h2.327zM1064.183 823.973c-50.874 51.689-118.956 80.53-191.493 81.14l-0.391-46.544c60.207-0.507 116.499-24.355 158.711-67.247zM1112.045 757.928c-12.493 24.267-28.639 46.516-47.863 66.045l-33.168-32.653c15.96-16.218 29.328-34.649 39.643-54.694zM1061.111 449.866c82.655 81.173 103.121 204.862 51.009 307.914l-41.537-21.005c42.934-84.898 26.163-186.676-42.086-253.703zM622.019-2.257l439.482 452.515-33.392 32.428-439.482-452.515zM148.818 450.676l439.809-452.934 33.392 32.424-439.808 452.934zM98.487 757.653c-52.112-102.896-31.72-226.56 50.737-307.387l32.582 33.243c-67.977 66.63-84.729 168.339-41.795 253.114z" />
<glyph unicode="&#xe916;" glyph-name="in" d="M0 89.344c0-84.69 68.655-153.344 153.344-153.344h717.312c84.69 0 153.344 68.654 153.344 153.344v717.312c0 84.689-68.654 153.344-153.344 153.344h-717.312c-84.689 0-153.344-68.655-153.344-153.344v-717.312zM153.345 857.602h717.311c28.16 0 50.944-22.784 50.944-50.944v-717.314c0-28.16-22.784-50.944-50.944-50.944h-717.311c-28.16 0-50.944 22.784-50.944 50.944v717.314c0 28.16 22.784 50.944 50.944 50.944zM256 499.045c0 28.365 22.733 51.354 51.2 51.354 28.288 0 51.2-22.963 51.2-51.354v-255.691c0.054-13.609-5.317-26.68-14.926-36.321-9.61-9.636-22.664-15.048-36.274-15.032-28.288 0-51.2 22.963-51.2 51.354v255.691zM307.2 601.6c28.277 0 51.2 22.923 51.2 51.2s-22.923 51.2-51.2 51.2c-28.277 0-51.2-22.923-51.2-51.2s22.923-51.2 51.2-51.2zM537.6 384c0 35.277 28.723 64 64 64 35.251 0 64-28.774 64-64v-140.8c0-28.278 22.922-51.2 51.2-51.2s51.2 22.922 51.2 51.2v140.8c0 91.749-74.547 166.398-166.4 166.398-91.884-0.042-166.358-74.517-166.401-166.398v-140.8c0-28.278 22.923-51.2 51.2-51.2s51.201 22.922 51.201 51.2v140.8z" />
<glyph unicode="&#xe917;" glyph-name="fb" d="M614.406 38.417v307.2h102.4c28.274 0 51.2 22.926 51.2 51.201 0 28.277-22.926 51.2-51.2 51.2h-102.4c0 72.141 7.834 115.712 30.464 141.082 24.934 27.878 49.562 38.118 71.936 38.118 28.274 0 51.2 22.923 51.2 51.2s-22.926 51.2-51.2 51.2c-50.614 0-103.219-21.862-148.276-72.294-45.568-50.97-56.525-112.179-56.525-209.306h-51.226c-28.277 0-51.2-22.923-51.2-51.2 0-28.274 22.923-51.201 51.2-51.201l51.226-4.301v-302.899h-358.656c-28.16 0-50.944 22.784-50.944 50.944v717.313c0 28.16 22.784 50.944 50.944 50.944h717.313c28.16 0 50.944-22.784 50.944-50.944v-717.313c0-28.16-22.784-50.944-50.944-50.944h-256.256zM0 89.344c0-84.69 68.655-153.344 153.344-153.344h717.312c84.69 0 153.344 68.654 153.344 153.344v717.312c0 84.689-68.654 153.344-153.344 153.344h-717.312c-84.689 0-153.344-68.655-153.344-153.344v-717.312z" />
<glyph unicode="&#xe918;" glyph-name="ig" d="M255.744 960h512.512c141.21 0 255.744-114.483 255.744-255.744v-512.512c0-141.238-114.483-255.744-255.744-255.744h-512.512c-141.21 0-255.744 114.483-255.744 255.744v512.512c0 141.21 114.483 255.744 255.744 255.744zM113.776 191.75c0-84.69 68.655-153.344 153.344-153.344h512.514c84.69 0 153.344 68.654 153.344 153.344v512.511c0 84.69-68.654 153.344-153.344 153.344h-512.514c-84.689 0-153.344-68.654-153.344-153.344v-512.511zM256 448c0 141.389 114.611 256 256 256 141.392 0 256-114.611 256-256 0-141.392-114.608-256-256-256-141.389 0-256 114.608-256 256zM665.6 448.005c0 84.831-68.767 153.6-153.599 153.6s-153.6-68.769-153.6-153.6c0-84.832 68.769-153.599 153.6-153.599s153.599 68.767 153.599 153.599zM768 652.797c28.274 0 51.2 22.923 51.2 51.2s-22.926 51.2-51.2 51.2c-28.279 0-51.2-22.923-51.2-51.2s22.921-51.2 51.2-51.2z" />
<glyph unicode="&#xe919;" glyph-name="start" d="M234.709-0.171c-6.895 0-13.79 1.092-20.548 3.14-17.408 5.53-31.676 17.408-40.073 33.587-6.895 13.107-9.284 28.467-6.758 43.145l45.261 262.076-191.83 185.412c-13.107 12.698-20.48 29.696-20.753 47.991-0.273 18.227 6.554 35.499 19.183 48.606 10.513 10.786 24.439 17.886 39.322 20.070l265.216 38.366 118.784 239.411c7.919 16.247 21.777 28.535 38.912 34.543 7.236 2.526 14.814 3.823 22.46 3.823 10.308 0 20.343-2.321 29.764-6.895 13.722-6.69 24.986-17.886 31.676-31.676l118.1-238.865 265.148-38.366c37.274-5.393 63.147-40.141 57.754-77.346-2.116-14.882-9.284-28.809-20.002-39.253l-191.898-185.481 45.261-262.076c3.072-17.954-1.024-36.113-11.537-50.995-10.581-14.95-26.283-24.849-44.237-27.853-3.755-0.683-7.646-1.024-11.537-1.024-10.923 0-21.845 2.662-31.539 7.782l-237.089 123.767-237.5-124.109c-9.762-5.12-20.685-7.782-31.539-7.782zM376.908 635.87c-4.983-10.035-14.609-16.998-25.668-18.637l-282.965-40.96 204.8-197.973c8.124-7.851 11.81-19.183 9.899-30.31l-48.333-279.893 253.338 132.369c4.847 2.594 10.308 3.891 15.77 3.891s10.923-1.297 15.77-3.823l252.927-132.028-48.333 279.893c-1.911 11.127 1.775 22.46 9.899 30.31l204.8 197.973-282.896 40.96c-11.127 1.638-20.753 8.602-25.668 18.637l-126.293 255.386-127.044-255.795z" />
<glyph unicode="&#xe91a;" glyph-name="book" d="M512 14.769c-10.398 0-18.836 9.248-18.836 20.645 0 52.641-153.778 116.563-359.582 123.29-30.74 1.032-54.851 28.243-54.813 61.935v598.616c0 16.516 5.877 32.082 16.538 43.808s24.864 18.167 39.97 18.167l1.695-0.041c204.146-7.061 332.006-60.531 375.027-113.918 43.021 53.387 170.881 106.858 374.918 113.918h1.804c14.431 0 28.144-5.946 38.652-16.764 11.004-11.314 17.329-26.674 17.818-43.189l0.039-1.775v-598.905c0-33.692-24.072-60.899-54.816-61.931-205.801-6.609-359.579-70.522-359.579-123.211 0-11.398-8.439-20.645-18.836-20.645zM136.031 839.9c-5.727-0.041-10.473-2.065-14.089-6.028-3.541-3.923-5.5-9.084-5.5-14.616v-598.616c0-11.231 8.024-20.315 18.271-20.645 102.242-3.345 198.608-20.149 271.277-47.316 37.183-13.879 66.379-29.814 87.174-47.482v611.496c0 52.314-152.723 116.106-357.133 123.208zM888.044 839.9c-204.409-7.060-357.208-70.894-357.208-123.208v-611.496c20.795 17.668 49.991 33.603 87.174 47.482 72.745 27.167 169.073 43.93 271.279 47.233 10.248 0.33 18.267 9.414 18.267 20.645v599.814c-0.15 5.12-2.261 10.199-5.908 13.997-3.545 3.675-8.066 5.574-13.115 5.574v10.322l-0.488-10.364z" />
<glyph unicode="&#xe91b;" glyph-name="warning" horiz-adv-x="1109" d="M149.324-17.664c-35.28 0-63.991 28.706-63.991 63.991 0 10.701 2.731 21.325 7.85 30.711l418.586 764.395c11.22 20.477 32.763 33.233 56.227 33.233 10.665 0 21.245-2.731 30.673-7.85 10.75-5.887 19.538-14.675 25.382-25.383l418.585-764.395c8.192-14.976 10.069-32.247 5.248-48.674s-15.701-29.995-30.669-38.178c-9.387-5.12-20.011-7.851-30.677-7.851h-837.215zM567.997 832.006c-7.85 0-15.017-4.223-18.771-11.092l-418.586-764.355c-1.707-3.106-2.603-6.647-2.603-10.189 0-11.776 9.556-21.333 21.33-21.333h837.172c3.584 0 7.125 0.896 10.24 2.603 4.992 2.731 8.619 7.253 10.24 12.715s0.981 11.221-1.749 16.205l-418.63 764.398c-1.963 3.583-4.907 6.484-8.447 8.446-3.2 1.749-6.612 2.603-10.196 2.603zM493.060 851.685c14.976 27.333 43.705 44.315 74.936 44.315 14.288 0 28.36-3.652 40.852-10.435 14.313-7.838 26.119-19.601 33.929-33.91l418.573-764.367c10.906-19.942 13.423-43.068 7.006-64.93-6.4-21.811-20.932-39.97-40.909-50.893-12.484-6.81-26.641-10.462-40.909-10.462h-837.215c-47.062 0-85.324 38.263-85.324 85.325 0 14.302 3.638 28.433 10.454 40.926l418.606 764.431zM567.937 810.668l-418.557-764.297h837.151l-418.593 764.297zM568 277.339c-11.776 0-21.333 9.556-21.333 21.332v277.328c0 11.776 9.557 21.333 21.333 21.333s21.332-9.557 21.332-21.333v-277.328c0-11.776-9.557-21.332-21.332-21.332zM525.333 576c0 23.558 19.109 42.667 42.667 42.667s42.666-19.109 42.666-42.667v-277.328c0-23.558-19.109-42.666-42.666-42.666s-42.667 19.108-42.667 42.666v277.328zM567.999 120.98c-17.663 0-31.999 14.335-31.999 31.999s14.336 31.999 31.999 31.999c17.664 0 32-14.335 32-31.999s-14.336-31.999-32-31.999zM567.999 163.645c-5.881 0-10.666-4.784-10.666-10.666s4.785-10.666 10.666-10.666c5.882 0 10.667 4.785 10.667 10.666s-4.785 10.666-10.667 10.666zM514.667 152.98c0 29.446 23.887 53.332 53.332 53.332s53.333-23.887 53.333-53.332c0-29.446-23.887-53.336-53.333-53.336s-53.332 23.89-53.332 53.336z" />
<glyph unicode="&#xe91c;" glyph-name="hands" d="M456.638 410.982c-20.377 0-36.981 16.567-36.981 36.981v110.942h-110.943c-20.376 0-36.981 16.605-36.981 36.981v110.942c0 20.376 16.605 36.981 36.981 36.981h110.943v110.943c0 20.376 16.604 36.981 36.981 36.981h110.942c20.414 0 36.981-16.605 36.981-36.981v-110.943h110.942c20.412 0 36.98-16.605 36.98-36.981v-110.942c0-20.377-16.568-36.981-36.98-36.981h-110.942v-110.942c0-20.414-16.568-36.981-36.981-36.981h-110.942zM308.714 595.887h129.433c10.207 0 18.491-8.284 18.491-18.491v-129.433h110.942v129.433c0 10.207 8.284 18.491 18.491 18.491h129.432v110.942h-129.432c-10.207 0-18.491 8.283-18.491 18.491v129.433h-110.942v-129.433c0-10.207-8.284-18.491-18.491-18.491h-129.433v-110.942zM456.638 883.2c-15.664 0-28.447-12.784-28.447-28.447v-119.476h-119.476c-15.664 0-28.447-12.784-28.447-28.447v-110.942c0-15.664 12.784-28.448 28.447-28.448h119.476v-119.476c0-15.695 12.778-28.447 28.447-28.447h110.942c15.701 0 28.448 12.747 28.448 28.447v119.476h119.475c15.695 0 28.447 12.779 28.447 28.448v110.942c0 15.669-12.752 28.447-28.447 28.447h-119.475v119.476c0 15.669-12.753 28.447-28.448 28.447h-110.942zM411.124 854.753c0 25.089 20.425 45.514 45.514 45.514h110.942c25.132 0 45.515-20.43 45.515-45.514v-102.41h102.408c25.136 0 45.513-20.43 45.513-45.514v-110.942c0-25.084-20.378-45.515-45.513-45.515h-102.408v-102.409c0-25.126-20.389-45.514-45.515-45.514h-110.942c-25.084 0-45.514 20.382-45.514 45.514v102.409h-102.41c-25.089 0-45.514 20.425-45.514 45.515v110.942c0 25.089 20.425 45.514 45.514 45.514h102.41v102.41zM448.104 863.286h128.009v-137.966c0-5.494 4.463-9.957 9.957-9.957h137.966v-128.009h-137.966c-5.494 0-9.957-4.463-9.957-9.957v-137.966h-128.009v137.966c0 5.494-4.463 9.957-9.957 9.957h-137.966v128.009h137.966c5.494 0 9.957 4.463 9.957 9.957v137.966zM465.171 846.219v-120.9c0-14.92-12.104-27.024-27.024-27.024h-120.9v-93.876h120.9c14.92 0 27.024-12.104 27.024-27.024v-120.9h93.876v120.9c0 14.92 12.104 27.024 27.024 27.024h120.899v93.876h-120.899c-14.92 0-27.024 12.104-27.024 27.024v120.9h-93.876zM826.272 4.198c-4.178 0-8.281 1.44-11.537 4.035-7.953 6.397-9.243 18.043-2.881 25.996l74.479 93.082c20.89 26.146 32.393 58.948 32.393 92.413v191.265c0 20.413-16.568 36.981-36.98 36.981s-36.98-16.568-36.98-36.981v-138.68c0-0.369-0.041-0.847-0.109-1.331 0.553-12.015-1.925-23.962-7.291-34.652l-50.736-84.46c-3.366-5.55-9.428-8.95-15.865-8.95-3.325 0-6.615 0.922-9.503 2.621-8.724 5.291-11.578 16.643-6.321 25.368l50.033 83.21c6.84 13.756 1.7 32.173-12.022 41.307l-1.256 0.776c-5.216 3.144-11.127 4.77-17.121 4.77-11.687 0-22.63-6.175-28.624-16.16l-42.749-63.974c-16.268-24.412-24.887-52.811-24.887-82.173v-110.947c0-10.206-8.283-18.487-18.49-18.487s-18.491 8.281-18.491 18.487v110.947c0 36.68 10.725 72.185 31.101 102.728l42.27 63.203c9.243 15.458 24.48 26.7 42.714 31.249 5.652 1.405 11.428 2.145 17.155 2.145 11.537 0 22.931-2.885 33.137-8.395v81.395c0 40.789 33.171 73.961 73.96 73.961s73.96-33.172 73.96-73.961v-191.265c0-41.827-14.384-82.835-40.489-115.494l-74.479-93.082c-3.516-4.437-8.765-6.95-14.391-6.95zM881.671 476.417c-36.079 0-65.427-29.351-65.427-65.428v-95.7l-12.588 6.795c-8.963 4.841-18.964 7.371-29.082 7.371-4.997 0-10.069-0.645-15.094-1.891-16.097-4.016-29.409-13.896-37.451-27.35l-0.225-0.37-42.271-63.184c-0.001 0 0.001 0 0 0-19.437-29.143-29.667-62.996-29.667-97.997v-110.947c0-5.489 4.463-9.953 9.957-9.953s9.957 4.465 9.957 9.953v110.947c0 31.048 9.117 61.099 26.321 86.903l42.646 63.821c7.564 12.459 21.231 20.115 35.826 20.115 7.543 0 14.978-2.048 21.531-5.996l0.075-0.047 1.509-0.93c17.053-11.357 23.805-34.359 14.923-52.217l-0.3-0.608-50.060-83.197c-2.799-4.649-1.318-10.759 3.386-13.647 1.604-0.935 3.393-1.413 5.127-1.413 3.447 0 6.745 1.836 8.561 4.826 0.007 0.007 0 0 0 0l50.558 84.159c4.594 9.277 6.731 19.661 6.246 30.153l-0.041 0.847 0.13 0.84 0.014 138.714c0 25.126 20.384 45.514 45.513 45.514s45.513-20.388 45.513-45.514v-191.265c0-35.403-12.158-70.083-34.263-97.744l-74.479-93.082c0 0 0 0 0 0-3.407-4.26-2.737-10.54 1.55-14.001 1.748-1.386 3.973-2.164 6.205-2.164 3.031 0 5.816 1.338 7.7 3.714l74.499 93.116c24.904 31.143 38.625 70.274 38.625 110.162v191.265c0 36.077-29.348 65.428-65.427 65.428zM799.177 410.989c0 45.502 36.994 82.495 82.493 82.495 45.507 0 82.493-36.992 82.493-82.495v-191.265c0-43.766-15.039-86.651-42.359-120.818l-74.452-93.047c-0.007-0.007 0 0.007 0 0-5.147-6.485-12.875-10.192-21.081-10.192-6.11 0-12.090 2.103-16.848 5.885-11.599 9.332-13.551 26.371-4.233 38.011l74.472 93.075c19.688 24.631 30.529 55.555 30.529 87.088v191.265c0 15.701-12.745 28.447-28.447 28.447s-28.447-12.747-28.447-28.447v-138.68c0-0.546-0.034-1.12-0.089-1.679 0.485-13.196-2.294-26.324-8.212-38.127l-0.294-0.58-50.756-84.453c-4.915-8.096-13.763-13.087-23.183-13.087-4.902 0-9.68 1.359-13.838 3.809l-0.089 0.048c-12.711 7.707-16.91 24.276-9.209 37.069l49.841 82.883c4.581 9.605 1.065 23.184-9.134 30.054l-1.079 0.669c-3.878 2.324-8.253 3.523-12.684 3.523-8.704 0-16.862-4.618-21.306-12.018l-0.212-0.356-42.755-63.965c0 0 0 0.007 0 0-15.333-23.006-23.456-49.766-23.456-77.435v-110.947c0-14.916-12.102-27.020-27.021-27.020s-27.024 12.104-27.024 27.020v110.947c0 38.366 11.222 75.517 32.535 107.465l42.16 63.036c10.452 17.364 27.559 29.895 47.855 34.958 6.294 1.563 12.759 2.399 19.224 2.399 8.383 0 16.684-1.354 24.603-3.982v68.449zM197.726 1.379c4.179 0 8.283 1.447 11.538 4.035 7.951 6.397 9.245 18.043 2.885 25.996l-74.48 93.082c-20.894 26.146-32.395 58.948-32.395 92.413v191.268c0 20.413 16.568 36.981 36.981 36.981s36.981-16.568 36.981-36.981v-138.676c0-0.375 0.037-0.853 0.111-1.331-0.555-12.022 1.923-23.968 7.285-34.652l50.737-84.466c3.366-5.55 9.43-8.95 15.865-8.95 3.328 0 6.619 0.928 9.504 2.628 8.727 5.284 11.575 16.637 6.324 25.368l-50.035 83.203c-6.841 13.763-1.701 32.175 12.019 41.31l1.257 0.776c5.214 3.144 11.131 4.77 17.122 4.77 11.686 0 22.632-6.175 28.624-16.16l42.749-63.977c16.272-24.405 24.889-52.811 24.889-82.173v-110.94c0-10.206 8.283-18.493 18.49-18.493s18.491 8.288 18.491 18.493v110.94c0 36.687-10.725 72.185-31.101 102.735l-42.269 63.199c-9.245 15.458-24.481 26.7-42.712 31.249-5.659 1.405-11.427 2.145-17.16 2.145-11.538 0-22.928-2.885-33.135-8.395v81.395c0 40.789-33.172 73.961-73.961 73.961s-73.962-33.172-73.962-73.961v-191.268c0-41.82 14.386-82.835 40.494-115.487l74.479-93.082c3.514-4.437 8.765-6.956 14.386-6.956zM142.328 473.6c36.077 0 65.428-29.351 65.428-65.428v-95.7l12.587 6.795c8.968 4.841 18.965 7.371 29.081 7.371 4.997 0 10.073-0.645 15.094-1.891 16.096-4.016 29.409-13.896 37.455-27.35l0.221-0.37 42.272-63.187c0.001 0-0.001 0 0 0 19.437-29.136 29.667-62.996 29.667-97.997v-110.94c0-5.495-4.463-9.96-9.957-9.96s-9.957 4.465-9.957 9.96v110.94c0 31.048-9.117 61.099-26.322 86.903l-42.646 63.824c-7.565 12.459-21.234 20.115-35.827 20.115-7.539 0-14.98-2.048-21.528-5.995l-0.079-0.048-1.505-0.93c-17.058-11.357-23.809-34.355-14.928-52.213l0.304-0.614 50.059-83.19c2.797-4.649 1.317-10.766-3.39-13.647-1.603-0.935-3.387-1.42-5.125-1.42-3.445 0-6.741 1.836-8.562 4.833-0.002 0 0.003-0.007 0 0l-50.554 84.152c-4.594 9.284-6.732 19.668-6.248 30.153l0.039 0.847-0.13 0.847-0.012 138.71c0 25.126-20.388 45.514-45.514 45.514s-45.514-20.388-45.514-45.514v-191.268c0-35.403 12.16-70.083 34.262-97.737l74.482-93.088c0 0-0.001 0 0 0 3.404-4.253 2.733-10.534-1.553-14.001-1.747-1.386-3.972-2.164-6.206-2.164-3.030 0-5.811 1.338-7.695 3.721l-74.505 93.109c-24.9 31.143-38.626 70.274-38.626 110.162v191.268c0 36.077 29.351 65.428 65.429 65.428zM224.823 408.172c0 45.502-36.992 82.495-82.495 82.495s-82.495-36.992-82.495-82.495v-191.268c0-43.759 15.044-86.651 42.363-120.818l74.454-93.047c0.005-0.007-0.005 0.007 0 0 5.142-6.485 12.872-10.192 21.076-10.192 6.115 0 12.091 2.103 16.85 5.891 11.599 9.332 13.548 26.365 4.235 38.004l-74.476 93.075c-19.686 24.637-30.528 55.562-30.528 87.088v191.268c0 15.701 12.747 28.447 28.447 28.447s28.447-12.747 28.447-28.447v-138.676c0-0.553 0.032-1.12 0.089-1.686-0.487-13.189 2.291-26.324 8.213-38.127l0.291-0.58 50.759-84.453c4.911-8.090 13.76-13.087 23.18-13.087 4.902 0 9.684 1.359 13.839 3.809l0.087 0.055c12.714 7.7 16.91 24.269 9.213 37.062l-49.842 82.889c-4.581 9.605-1.066 23.18 9.131 30.050l1.083 0.669c3.871 2.324 8.251 3.523 12.679 3.523 8.705 0 16.866-4.618 21.306-12.018l0.214-0.358 42.753-63.959c0.001-0.007-0.002 0 0 0 15.335-23.006 23.455-49.766 23.455-77.442v-110.94c0-14.923 12.104-27.027 27.023-27.027s27.024 12.104 27.024 27.027v110.94c0 38.366-11.222 75.517-32.535 107.472l-42.159 63.032c-10.455 17.364-27.563 29.895-47.857 34.958-6.292 1.563-12.76 2.399-19.225 2.399-8.379 0-16.684-1.354-24.601-3.982v68.449z" />
<glyph unicode="&#xe91d;" glyph-name="send" d="M855.579 719.162l-195.077-585.239-113.81 276.378 308.887 308.861zM474.308 482.682l-276.381 113.808 585.245 195.054-308.864-308.862zM618.21-32.315c18.049-43.849 80.891-41.671 95.89 3.331l307.178 921.517c13.361 40.009-24.727 78.073-64.765 64.762l-921.524-307.172c-44.976-15.026-47.151-77.868-3.277-95.915l415.429-171.069 171.069-415.453z" />
<glyph unicode="&#xe91e;" glyph-name="twitter" horiz-adv-x="1195" d="M155.386 483.271c22.965-91.96 80.928-177.863 180.906-244.139 37.318-24.747 32.853-79.986-7.974-98.702-15.281-6.997-103.139-31.858-126.626-37.348-7.945-1.877-24.647-5.66-24.647-5.66 54.193-31.289 130.105-47.644 229.387-47.644 318.52 0 550.951 229.518 551.212 573.013 0 5.945-0.29 22.699-0.29 24.32 0 118.3-63.238 199.679-173.687 199.11-111.195-0.569-174.262-81.351-174.262-199.11l-0.176-56.206c-0.006-16.274-7.111-31.767-19.53-42.561-12.413-10.794-28.95-15.854-45.42-13.901-145.444 17.209-277.491 79.843-379.383 176.866l-1.537-4.437c-6.785-22.414-11.888-45.112-15.136-67.868 17.203-19.703 36.806-37.262 58.369-52.281 15.716-11.036 32.765-21.020 51.12-29.724 28.833-13.683 40.9-47.704 26.952-75.989s-48.629-40.121-77.463-26.439c-17.876 8.487-35.183 18.083-51.816 28.728v-0.028zM1072.902 666.165c0.29-6.286 0.438-12.658 0.438-19.058 0-2.645 0.29-16.782 0.29-24.377-0.29-406.126-284.45-686.731-667.198-686.731-189.025 0-311.126 48.441-395.273 161.479-11.722 15.747-14.407 36.284-7.114 54.42 7.292 18.142 23.546 31.351 43.069 35.009l10.815 2.076c8.757 1.707 89.075 18.29 116.941 24.775l8.003 1.877-2.987 2.788c-179.862 176.353-190.068 421.629-85.509 624.721 9.002 17.487 26.542 29.199 46.427 31.002s39.316-6.556 51.434-22.128c74.869-96.501 181.361-164.731 301.529-193.194l-0.086 3.015c5.857 167.736 111.924 297.243 289.378 298.153 105.865 0.54 186.448-45.568 235.537-118.613l80.407 4.267c58.453 3.072 79.013-32.626 45.289-79.73l-71.39-99.754z" />
<glyph unicode="&#xe91f;" glyph-name="whatsapp" horiz-adv-x="973" d="M145.067-17.382c0-37.166 43.036-59.341 75.193-38.723 0 0 143.35 92.733 151.764 97.736 36.266-8.259 73.621-12.472 111.532-12.472 267.067 0 483.556 208.369 483.556 465.421s-216.489 465.421-483.556 465.421c-267.068 0-483.556-208.369-483.556-465.421-0.153-124.966 52.060-244.713 144.825-332.147l0.242-179.814zM96.709 494.58c0 205.646 173.186 372.337 386.845 372.337 213.658 0 386.842-166.691 386.842-372.337 0-205.648-173.184-372.335-386.842-372.335-36.509 0-72.292 4.864-106.649 14.31-13.645 3.763-28.321 1.572-40.135-6.006l-94.994-62.295v114.074c-0.001 13.235-5.856 25.846-16.102 34.673-82.192 70.559-129.124 171.576-128.964 277.579zM345.667 674.412l-32.64-31.416c-26.837-25.831-30.657-70.907-8.438-100.554 0 0 24.274-39.631 105.173-117.472 80.923-77.844 123.599-102.487 123.599-102.487 30.387-21.688 77.486-17.802 104.371 8.1l32.64 31.37c8.832 8.576 8.822 22.405-0.020 30.971l-65.039 62.601c-4.301 4.171-10.148 6.519-16.256 6.523-6.103 0.005-11.955-2.335-16.261-6.5-8.95-8.608-25.825-12.1-37.381-7.261 0 0-27.611 7.33-60.058 38.56-32.446 31.206-40.014 57.735-40.014 57.735-4.763 11.217-1.45 27.251 7.592 35.954 4.313 4.143 6.734 9.767 6.73 15.631s-2.435 11.485-6.754 15.622l-65.038 62.599c-8.926 8.481-23.278 8.481-32.205 0v0.023z" />
<glyph unicode="&#xe920;" glyph-name="anchor" d="M614.134 618.074c8.996 8.993 21.202 14.031 33.92 14 12.723-0.031 24.904-5.13 33.853-14.168 18.708-18.7 18.785-49.005 0.169-67.798l-272.154-272.127c-8.995-9.001-21.209-14.044-33.934-14.013s-24.913 5.135-33.864 14.182c-18.708 18.698-18.783 49.004-0.168 67.794l272.177 272.131zM478.033 210.171l-135.908-135.905c-56.326-56.212-147.525-56.212-203.85 0-56.223 56.32-56.223 147.528 0 203.848l135.908 135.91c18.762 18.765 18.756 49.191-0.012 67.953s-49.192 18.757-67.954-0.012l-135.908-135.909c-93.721-93.722-93.769-245.965 0-339.758 93.721-93.696 246.014-93.768 339.759 0l135.909 135.91c18.77 18.76 18.775 49.183 0.010 67.953-18.76 18.77-49.185 18.775-67.953 0.010zM817.797 414.024l135.905 135.909c93.768 93.769 93.696 246.014 0 339.759-93.793 93.769-246.011 93.721-339.758 0l-135.908-135.908c-12.141-12.137-16.885-29.829-12.445-46.411s17.39-29.537 33.971-33.983c16.579-4.446 34.274 0.292 46.413 12.428l135.91 135.908c56.32 56.223 147.533 56.223 203.853 0 56.207-56.326 56.207-147.525 0-203.85l-135.864-135.884c-18.76-18.768-18.755-49.192 0.015-67.957 18.765-18.76 49.193-18.755 67.953 0.015l-0.046-0.026z" />
<glyph unicode="&#xe921;" horiz-adv-x="1088" d="M875.098 437.072c3.584-3.434 8.454-5.216 13.184-5.216 1.171 0 2.342 0.099 3.501 0.304l2.669-2.557c7.309-6.998 19.059-6.998 26.368 0 7.309 7.002 7.309 18.256 0 25.258l-33.904 32.474c-19.488 18.803-19.488 49.277 0 67.942 6.019 5.904 16.051 5.904 22.211 0l44.909-43.014c93.286-89.357 93.286-234.576 0-323.933-20.963-20.080-45.507-36.166-72.317-47.546 10.256 27.923 15.6 57.613 15.6 88.064 0 70.688-28.803 137.261-80.963 187.222l-82.483 79.005c-9.77 9.36-22.467 14.288-35.318 14.784-0.109 4.419-1.933 8.813-5.475 12.205l-20.035 19.187c-0.39 0.461-0.81 0.902-1.258 1.331l-13.875 13.293c-11.174 12.416-10.608 31.075 1.696 42.861 12.896 12.352 33.674 12.352 46.57 0l168.922-161.664zM827.357 113.21c0.694 4.051 2.845 7.747 6.038 10.454 17.421 32.144 26.666 68.045 26.666 105.322 0 61.216-24.934 118.73-70.074 161.965l-80.218 83.549c-3.011 2.883-6.88 4.394-11.178 4.394s-10.288-6.054-13.296-8.938c-14.893-14.262-18.406-35.418-10.541-52.992l35.014-33.539c2.922-2.8 4.675-6.278 5.261-9.894l41.885-40.118c7.309-7.002 7.309-18.256 0-25.254-7.309-7.002-19.059-7.002-26.368 0l-71.619 68.602c-6.083 5.827-11.082 12.301-14.995 19.19l-167.312 160.15c-12.896 12.352-33.674 12.352-46.573 0-12.266-11.75-12.864-30.33-1.798-42.746l14.125-13.533c0.477-0.454 0.922-0.928 1.338-1.418l168.614-161.51c7.309-6.998 7.309-18.256 0-25.254-3.584-3.434-8.314-5.216-13.040-5.216-4.73 0-9.603 1.782-13.184 5.216l-172.509 184.362-4.592 3.821-41.002 28.179c-12.896 12.352-33.069 4.323-45.965-8.029-6.163-5.901-9.602-13.862-9.602-22.237 0-8.371 3.439-16.333 9.602-22.237l35.222-33.738c1.603-1.536 2.854-3.277 3.757-5.136 3.427-2.269 6.691-4.864 9.741-7.786l168.922-161.802c7.306-7.002 7.306-18.256 0-25.258-7.309-6.998-19.059-6.998-26.368 0l-161.309 169.558c-12.896 12.352-41.43 4.598-54.327-7.757-12.897-12.352-12.897-32.256 0-44.608l168.919-161.802c7.309-7.002 7.309-18.256 0-25.258-3.725-3.43-8.454-5.078-13.184-5.078-4.726 0-19.776 18.061-23.36 21.494l-62.048 67.67c0 12.816-17.13 12.707-20.010 15.469-12.896 12.352-37.393 0.118-50.29-12.234-12.897-12.355-12.897-32.256 0-44.611l154.101-147.606c93.29-89.357 244.899-89.357 338.186 0 14.634 14.016 27.146 29.533 37.37 46.192zM630.749 531.379l-32.733 31.354c-12.896 12.352-33.677 12.352-46.573 0-5.462-5.232-8.608-11.814-9.446-18.608l93.53-89.587c3.526 14.858 11.325 28.97 23.402 40.538 1.626 1.555 3.328 2.989 5.101 4.301l-30.79 29.494c-0.858 0.819-1.686 1.658-2.49 2.509z" />
<glyph unicode="&#xe922;" horiz-adv-x="1088" d="M353.622 412.656c-4.634 0-9.405 1.792-12.912 5.245l-34.497 33.926c-26.806 26.362-26.806 69.286 0 95.651 26.807 26.362 70.452 26.362 97.258 0l46.426-45.658c7.158-7.040 7.158-18.358 0-25.398s-18.666-7.040-25.824 0l-46.426 45.658c-12.63 12.422-32.979 12.422-45.61 0-6.035-5.933-9.405-13.939-9.405-22.358s3.37-16.426 9.405-22.362l34.496-33.926c7.155-7.037 7.155-18.355 0-25.395-3.651-3.59-8.282-5.382-12.912-5.382z" />
<glyph unicode="&#xe923;" horiz-adv-x="1088" d="M353.622 406.256c-6.221 0-12.634 2.39-17.402 7.082l-34.495 33.926c-29.356 28.87-29.356 75.907 0 104.778 29.295 28.813 76.937 28.813 106.233 0l46.426-45.658c9.709-9.549 9.709-24.976 0-34.525-9.648-9.488-25.149-9.488-34.797 0l-46.426 45.658c-10.141 9.974-26.496 9.974-36.637 0-4.819-4.739-7.491-11.104-7.491-17.795s2.672-13.056 7.491-17.798l34.496-33.926c9.706-9.546 9.706-24.976 0-34.522-4.848-4.768-11.091-7.219-17.398-7.219zM340.71 417.901c3.507-3.453 8.278-5.245 12.912-5.245 4.63 0 9.261 1.792 12.909 5.382 7.158 7.040 7.158 18.358 0 25.395l-34.493 33.926c-6.035 5.936-9.405 13.942-9.405 22.362s3.37 16.426 9.405 22.358c12.63 12.422 32.979 12.422 45.61 0l46.426-45.658c7.158-7.040 18.666-7.040 25.824 0s7.158 18.358 0 25.398l-46.426 45.658c-26.806 26.362-70.451 26.362-97.259 0-26.806-26.365-26.806-69.29 0-95.651l34.497-33.926z" />
<glyph unicode="&#xe924;" horiz-adv-x="1088" d="M603.574 307.341c-4.634 0-9.405 1.795-12.912 5.245l-178.518 175.568c-26.806 26.365-26.806 69.29 0 95.651 26.803 26.365 70.451 26.365 97.258 0l202.378-199.030c7.158-7.040 7.158-18.358 0-25.398s-18.666-7.040-25.824 0l-202.518 199.034c-12.63 12.422-32.979 12.422-45.613 0-12.63-12.422-12.63-32.435 0-44.858l178.522-175.571c7.155-7.037 7.155-18.355 0-25.395-3.51-3.45-8.141-5.245-12.771-5.245z" />
<glyph unicode="&#xe925;" horiz-adv-x="1088" d="M483.437 558.41l202.518-199.034c7.158-7.040 18.666-7.040 25.824 0 7.155 7.040 7.155 18.358 0 25.398l-202.378 199.030c-26.806 26.365-70.454 26.365-97.261 0-26.803-26.362-26.803-69.286 0-95.651l178.518-175.568c3.51-3.45 8.282-5.245 12.912-5.245 4.634 0 9.264 1.795 12.771 5.245 7.158 7.040 7.158 18.358 0 25.395l-178.518 175.571c-12.63 12.422-12.63 32.435 0 44.858 12.634 12.422 32.982 12.422 45.613 0zM681.466 354.813l-202.515 199.030c-10.141 9.974-26.496 9.978-36.637 0.003-10.083-9.914-10.083-25.818 0-35.731l178.518-175.571c9.706-9.546 9.706-24.976 0-34.522-4.733-4.656-10.989-7.082-17.261-7.082-6.218 0-12.63 2.39-17.398 7.082l-178.518 175.568c-29.357 28.87-29.357 75.907 0 104.778 29.296 28.813 76.938 28.813 106.234 0l202.378-199.034c9.709-9.546 9.709-24.973 0-34.522-9.648-9.488-25.149-9.488-34.8 0z" />
<glyph unicode="&#xe926;" horiz-adv-x="1088" d="M460.704 166.976c-4.63 0-9.402 1.795-12.912 5.245l-165.297 162.566c-26.806 26.362-26.806 69.29 0 95.651 26.806 26.365 70.452 26.365 97.259 0l165.437-162.704c7.158-7.040 7.158-18.358 0-25.395-7.155-7.040-18.666-7.040-25.821 0l-165.581 162.704c-12.63 12.422-32.979 12.422-45.611 0s-12.631-32.438 0-44.861l165.438-162.704c7.158-7.037 7.158-18.355 0-25.395-3.648-3.45-8.282-5.107-12.912-5.107z" />
<glyph unicode="&#xe927;" horiz-adv-x="1088" d="M349.302 400.48c-10.141 9.971-26.496 9.971-36.637 0-10.081-9.917-10.081-25.818 0-35.734l165.437-162.704c9.709-9.546 9.709-24.976 0-34.522l-0.090-0.090c-4.909-4.64-11.142-6.854-17.309-6.854-6.221 0-12.63 2.394-17.398 7.082l-165.299 162.566c-29.356 28.87-29.356 75.907 0 104.778 29.296 28.813 76.937 28.813 106.233 0l165.44-162.704c9.706-9.546 9.706-24.976 0-34.522-9.648-9.488-25.149-9.488-34.797-0.003-0.003 0 0 0 0 0l-165.581 162.707zM519.366 242.339c7.158-7.040 18.669-7.040 25.824 0 7.158 7.037 7.158 18.355 0 25.395l-165.437 162.704c-26.806 26.365-70.453 26.365-97.259 0-26.806-26.362-26.806-69.29 0-95.651l165.297-162.566c3.507-3.45 8.282-5.245 12.912-5.245s9.264 1.658 12.912 5.107c7.158 7.040 7.158 18.358 0 25.395l-165.438 162.704c-12.631 12.422-12.631 32.438 0 44.861 12.632 12.422 32.981 12.422 45.611 0l165.578-162.704z" />
<glyph unicode="&#xe928;" horiz-adv-x="1088" d="M624.854-32.003c-69.331 0-138.662 25.949-191.43 77.846l-150.925 148.57c-12.912 12.698-20.069 29.677-20.069 47.757 0 18.083 7.157 35.059 20.069 47.757s30.174 19.738 48.56 19.738c18.384 0 35.648-7.040 48.557-19.738 7.158-7.040 7.158-18.355 0-25.395-7.155-7.040-18.666-7.040-25.821 0-12.634 12.422-32.982 12.422-45.613 0s-12.631-32.435 0-44.858l150.925-148.432c91.363-89.856 239.85-89.856 331.213 0 44.208 43.478 68.63 101.312 68.63 162.87s-24.422 119.392-68.63 162.87l-80.64 79.446c-2.947 2.899-6.736 4.416-10.947 4.416s-8-1.517-10.947-4.416c-19.088-18.771-19.088-49.414 0-68.323l70.144-68.986c7.158-7.037 7.158-18.355 0-25.395s-18.666-7.040-25.824 0l-70.144 68.986c-33.402 32.848-33.402 86.128 0 118.976 20.211 19.875 53.19 19.875 73.402 0l80.781-79.446c51.085-50.24 79.296-117.184 79.296-188.266 0-71.085-28.211-138.026-79.296-188.269-52.63-51.76-121.958-77.709-191.29-77.709z" />
<glyph unicode="&#xe929;" horiz-adv-x="1088" d="M428.934 41.28v0.003l-150.924 148.566c-0.001 0-0.001 0.003-0.002 0.003-14.125 13.891-21.98 32.509-21.98 52.317 0 19.811 7.855 38.429 21.981 52.32 14.123 13.891 33.003 21.574 53.048 21.574 20.042 0 38.922-7.683 53.046-21.574 9.706-9.546 9.706-24.976 0-34.522-9.648-9.488-25.152-9.488-34.8 0-10.141 9.971-26.496 9.971-36.636 0-10.081-9.917-10.081-25.818 0-35.734l150.924-148.429c88.874-87.405 233.363-87.405 322.24 0 42.998 42.288 66.714 98.483 66.714 158.307s-23.715 116.019-66.714 158.307l-0.006 0.003-80.637 79.443c0 0 0 0.003 0 0.003-1.715 1.683-3.875 2.576-6.458 2.576-2.586 0-4.746-0.896-6.461-2.579-16.525-16.253-16.55-42.794 0.013-59.206 0-0.003 0.003-0.006 0.006-0.006l70.125-68.97c9.709-9.546 9.709-24.976 0-34.522-9.648-9.488-25.149-9.488-34.797 0l-70.144 68.986c-35.952 35.357-35.952 92.746 0 128.102 22.701 22.326 59.674 22.326 82.374 0l80.781-79.446c52.298-51.43 81.206-120.013 81.206-192.829s-28.909-141.398-81.206-192.832c-53.891-52.998-124.861-79.546-195.776-79.546-70.918 0-141.888 26.547-195.92 79.683zM687.786 408.106c-19.088 18.909-19.088 49.552 0 68.323 2.947 2.899 6.736 4.416 10.947 4.416s8-1.517 10.947-4.416l80.64-79.446c44.208-43.478 68.627-101.312 68.627-162.87s-24.419-119.392-68.627-162.87c-91.363-89.856-239.85-89.856-331.213 0l-150.925 148.432c-12.631 12.419-12.631 32.435 0 44.858s32.98 12.422 45.613 0c7.155-7.040 18.666-7.040 25.821 0 7.158 7.040 7.158 18.355 0 25.395-12.912 12.698-30.173 19.738-48.557 19.738-18.387 0-35.649-7.040-48.561-19.738s-20.069-29.674-20.069-47.757c0-18.080 7.157-35.059 20.069-47.757l150.925-148.57c52.768-51.898 122.099-77.846 191.43-77.846 69.328 0 138.659 25.949 191.29 77.709 51.085 50.243 79.293 117.184 79.293 188.269 0 71.082-28.208 138.026-79.293 188.266l-80.781 79.446c-20.211 19.875-53.19 19.875-73.402 0-33.402-32.848-33.402-86.128 0-118.976l70.144-68.986c7.158-7.040 18.666-7.040 25.824 0s7.158 18.358 0 25.395l-70.144 68.986z" />
<glyph unicode="&#xe92a;" horiz-adv-x="1088" d="M661.68 514.179c-4.63 0-9.402 1.792-12.909 5.245l-46.426 45.658c-12.634 12.422-32.982 12.422-45.613 0-5.754-5.658-8.886-12.89-9.398-20.262l-30.179 26.307c3.299 7.011 7.885 13.578 13.754 19.35 26.806 26.365 70.454 26.365 97.261 0l46.422-45.658c7.158-7.040 7.158-18.355 0-25.395-3.507-3.59-8.278-5.245-12.912-5.245z" />
<glyph unicode="&#xe92b;" horiz-adv-x="1088" d="M517.155 571.126l30.179-26.307c0.17 2.461 0.634 4.906 1.389 7.28 1.507 4.742 4.176 9.213 8.010 12.982 12.63 12.422 32.979 12.422 45.613 0l46.426-45.658c3.507-3.453 8.278-5.245 12.909-5.245 4.634 0 9.405 1.654 12.912 5.245 7.158 7.037 7.158 18.355 0 25.395l-46.426 45.658c-26.803 26.365-70.451 26.365-97.258 0-5.869-5.773-10.454-12.339-13.754-19.35zM552.826 531.542l-43.517 37.936 2.058 4.371c3.616 7.69 8.64 14.883 15.056 21.19 29.296 28.813 76.938 28.813 106.234 0l46.426-45.658c9.693-9.533 9.706-24.928 0.045-34.48-4.874-4.957-11.36-7.123-17.446-7.123-6.218 0-12.63 2.39-17.398 7.082l-46.426 45.658c-10.141 9.974-26.496 9.974-36.637 0-4.611-4.538-7.094-10.294-7.501-16.144l-0.893-12.832z" />
<glyph unicode="&#xe92c;" horiz-adv-x="1088" d="M886.627 433.472c-4.63 0-9.405 1.795-12.912 5.245l-165.437 162.566c-12.634 12.422-32.982 12.422-45.613 0s-12.63-32.435 0-44.858l32.784-32.24c7.155-7.040 7.155-18.358 0-25.398-7.158-7.040-18.669-7.040-25.824 0l-32.784 32.243c-26.806 26.362-26.806 69.286 0 95.651 26.806 26.363 70.454 26.363 97.258 0l165.44-162.704c7.155-7.040 7.155-18.358 0-25.398-3.651-3.45-8.282-5.107-12.912-5.107z" />
<glyph unicode="&#xe92d;" horiz-adv-x="1088" d="M703.789 596.72c-10.141 9.974-26.496 9.974-36.637 0-10.080-9.914-10.080-25.818 0-35.731l32.784-32.24c9.706-9.549 9.706-24.976 0-34.525-9.648-9.488-25.152-9.488-34.8 0l-32.781 32.243c-29.357 28.87-29.357 75.907 0 104.778 29.296 28.812 76.938 28.812 106.234 0l165.437-162.704c9.709-9.549 9.709-24.976 0-34.525l-0.090-0.086c-4.909-4.643-11.142-6.858-17.309-6.858-6.221 0-12.63 2.394-17.398 7.082 0 0 0 0 0 0l-165.44 162.566zM873.715 438.717c3.507-3.45 8.278-5.245 12.912-5.245 4.63 0 9.261 1.658 12.912 5.107 7.155 7.040 7.155 18.358 0 25.398l-165.44 162.704c-26.806 26.363-70.451 26.363-97.258 0-26.806-26.365-26.806-69.29 0-95.651l32.784-32.243c7.155-7.040 18.666-7.040 25.821 0 7.158 7.040 7.158 18.358 0 25.398l-32.781 32.24c-12.63 12.422-12.63 32.435 0 44.858s32.979 12.422 45.61 0l165.44-162.566z" />
<glyph unicode="&#xe92e;" horiz-adv-x="1088" d="M844.925 92.246c-8.282 0-15.722 5.52-17.686 13.664-2.384 9.664 3.651 19.325 13.475 21.67 41.683 9.939 79.856 31.056 110.31 61.008 91.363 89.856 91.363 235.885 0 325.741l-43.981 43.254c-6.035 5.936-15.859 5.936-21.754 0-19.088-18.771-19.088-49.411 0-68.323l33.203-32.653c7.158-7.040 7.158-18.358 0-25.398s-18.666-7.040-25.824 0l-33.203 32.656c-33.402 32.851-33.402 86.128 0 118.979 20.208 19.875 53.19 19.875 73.398 0l43.843-43.117c51.085-50.243 79.296-117.184 79.296-188.269s-28.211-138.026-79.296-188.266c-35.226-34.646-79.296-59.075-127.434-70.531-1.402-0.278-2.806-0.416-4.349-0.416z" />
<glyph unicode="&#xe92f;" horiz-adv-x="1088" d="M839.226 133.805l0.003 0.003c40.55 9.667 77.686 30.211 107.309 59.344 88.813 87.347 88.813 229.267 0 316.614l-43.984 43.254c-3.574 3.517-9.36 3.44-12.723 0.054l-0.054-0.054c-16.525-16.253-16.55-42.79 0.010-59.203 0.003-0.003 0.003-0.006 0.006-0.010l33.187-32.64c9.709-9.546 9.709-24.973 0-34.522-9.648-9.488-25.149-9.488-34.797 0l-33.206 32.656c-35.952 35.357-35.952 92.746 0 128.102 22.701 22.326 59.677 22.326 82.378 0l43.84-43.117c52.298-51.43 81.21-120.013 81.21-192.829s-28.912-141.398-81.21-192.829c-36.054-35.462-81.162-60.47-130.438-72.195l-0.246-0.058v0.003c-1.821-0.358-3.638-0.534-5.587-0.534-11.069 0-21.197 7.386-23.901 18.547-3.254 13.219 5.046 26.269 18.205 29.411zM827.238 105.91c1.965-8.144 9.405-13.664 17.683-13.664 1.546 0 2.947 0.138 4.352 0.416 48.138 11.456 92.208 35.885 127.434 70.528 51.085 50.243 79.296 117.184 79.296 188.269s-28.211 138.026-79.296 188.266l-43.843 43.12c-20.208 19.875-53.19 19.875-73.398 0-33.402-32.851-33.402-86.128 0-118.979l33.203-32.656c7.158-7.040 18.666-7.040 25.824 0s7.158 18.358 0 25.398l-33.203 32.653c-19.088 18.912-19.088 49.552 0 68.323 5.894 5.936 15.718 5.936 21.754 0l43.981-43.254c91.363-89.856 91.363-235.885 0-325.741-30.454-29.952-68.63-51.069-110.31-61.008-9.824-2.346-15.859-12.006-13.475-21.67z" />
<glyph unicode="&#xe930;" horiz-adv-x="1088" d="M334.362 747.002c-6.176 0-12.349 3.175-15.719 8.834l-35.507 58.799c-5.193 8.557-2.245 19.461 6.316 24.569 8.701 5.107 19.789 2.208 24.981-6.211l35.507-58.799c5.194-8.558 2.246-19.462-6.314-24.569-2.81-1.794-6.035-2.623-9.264-2.623z" />
<glyph unicode="&#xe931;" horiz-adv-x="1088" d="M289.452 839.204c-8.561-5.107-11.508-16.011-6.316-24.569l35.508-58.799c3.369-5.659 9.542-8.834 15.718-8.834 3.229 0 6.458 0.828 9.264 2.622 8.56 5.107 11.507 16.011 6.314 24.569l-35.506 58.799c-5.193 8.42-16.28 11.318-24.981 6.211zM313.155 752.544l-35.49 58.771c-0.001 0.002-0.003 0.004-0.004 0.007-7.103 11.715-2.976 26.525 8.512 33.379l0.039 0.023c11.74 6.891 26.672 2.973 33.668-8.371l0.032-0.051 35.5-58.787c0.003-0.002 0.003-0.004 0.003-0.007 7.088-11.686 2.998-26.453-8.426-33.328-3.926-2.484-8.342-3.576-12.627-3.576-8.272 0-16.606 4.228-21.207 11.941z" />
<glyph unicode="&#xe932;" horiz-adv-x="1088" d="M491.139 792.002c-9.824 0-17.965 7.729-18.246 17.391l-2.246 68.323c-0.278 9.938 7.581 18.22 17.686 18.495 10.102 0.276 18.525-7.453 18.803-17.391l2.246-68.323c0.282-9.938-7.578-18.22-17.683-18.495-0.141 0-0.419 0-0.56 0z" />
<glyph unicode="&#xe933;" horiz-adv-x="1088" d="M411.418 773.778c-8.282 0-15.859 5.659-17.683 13.941l-28.070 118.288c-2.246 9.662 3.789 19.324 13.613 21.532s19.648-3.727 21.894-13.388l28.070-118.288c2.243-9.662-3.792-19.324-13.616-21.532-1.402-0.414-2.806-0.552-4.208-0.552z" />
<glyph unicode="&#xe934;" horiz-adv-x="1088" d="M365.664 906.007l28.067-118.288c1.827-8.282 9.405-13.94 17.686-13.94 1.402 0 2.806 0.138 4.208 0.552 9.824 2.208 15.859 11.87 13.613 21.532l-28.067 118.288c-2.246 9.662-12.070 15.597-21.894 13.388s-15.859-11.87-13.613-21.532zM387.494 786.288l-28.058 118.242c-3.053 13.139 5.165 26.27 18.435 29.254 13.091 2.943 26.445-4.934 29.53-18.169 0-0.005 0 0.005 0 0l28.064-118.275c3.040-13.074-5.082-26.139-18.237-29.208-2.077-0.587-4.051-0.753-5.811-0.753-11.078 0-21.392 7.543-23.923 18.909z" />
<glyph unicode="&#xe935;" horiz-adv-x="1088" d="M75.707 351.706c-8.28 0-15.859 5.661-17.824 13.942-2.245 9.661 3.93 19.322 13.754 21.53l67.787 15.322c9.824 2.208 19.648-3.866 21.894-13.526s-3.93-19.325-13.754-21.533l-67.787-15.318c-1.263-0.278-2.666-0.416-4.070-0.416z" />
<glyph unicode="&#xe936;" horiz-adv-x="1088" d="M147.992 527.542c-1.684 0-3.368 0.275-5.052 0.691l-66.804 18.909c-9.684 2.758-15.298 12.698-12.491 22.221s12.912 15.046 22.596 12.285l66.804-18.909c9.684-2.762 15.298-12.698 12.491-22.224-2.386-7.866-9.684-12.973-17.543-12.973z" />
<glyph unicode="&#xe937;" horiz-adv-x="1088" d="M141.252 447.354c-0.561 0-0.982 0-1.544 0l-122.942 10.077c-10.105 0.829-17.543 9.523-16.701 19.322 0.842 9.939 9.684 17.254 19.648 16.426l122.942-10.077c10.105-0.826 17.543-9.523 16.701-19.322-0.702-9.248-8.701-16.426-18.105-16.426z" />
<glyph unicode="&#xe938;" glyph-name="spinner" d="M910.22 775.282c-95.997 114.261-241.207 184.718-398.22 184.718-259.043 0-476.388-193.394-508.075-448.285-3.88-31.183 18.253-59.608 49.436-63.488s59.608 18.254 63.488 49.437c24.604 198.115 193.707 348.558 395.15 348.558 134.627 0 258.075-66.275 331.551-170.667h-103.997c-31.416 0-56.887-25.47-56.887-56.889s25.47-56.889 56.887-56.889h196.328c1.932-0.085 3.864-0.085 5.803 0h25.429c31.416 0 56.887 25.47 56.887 56.889v227.555c0 31.419-25.47 56.889-56.887 56.889-31.423 0-56.893-25.47-56.893-56.889v-70.94zM180.537 220.447h103.908c31.418 0 56.889 25.47 56.889 56.887 0 31.419-25.47 56.889-56.889 56.889h-227.556c-31.419 0-56.889-25.47-56.889-56.889v-227.553c0-31.423 25.47-56.893 56.889-56.893s56.889 25.47 56.889 56.893v70.936c95.886-114.347 241.038-184.716 398.222-184.716 258.642 0 475.791 192.853 507.931 447.261 3.407 30.882-18.596 58.784-49.418 62.676s-59.071-17.667-63.447-48.426c-25.006-197.715-193.905-347.731-395.066-347.731-134.827 0-258.133 66.185-331.463 170.667z" />
<glyph unicode="&#xe939;" glyph-name="share" horiz-adv-x="768" d="M371.807 954.88c25.449 0 46.080-20.631 46.080-46.080v-520.883c0-25.446-20.631-46.080-46.080-46.080s-46.080 20.634-46.080 46.080v520.883c0 25.449 20.631 46.080 46.080 46.080zM339.226 941.387c17.995 17.991 47.166 17.991 65.161 0l180.343-180.306c17.997-17.993 17.997-47.17 0.005-65.167s-47.171-18-65.167-0.007l-147.761 147.732-147.762-147.732c-17.997-17.993-47.173-17.991-65.167 0.007s-17.991 47.174 0.007 65.167l180.341 180.306zM97.281 498.433h110.58c25.449 0 46.080 20.631 46.080 46.080s-20.631 46.080-46.080 46.080h-116.584c-22.847 0-44.76-9.074-60.918-25.229s-25.238-38.068-25.238-60.919v-477.171c0-22.851 9.079-44.764 25.238-60.923 16.158-16.154 38.071-25.226 60.918-25.226h561.063c22.845 0 44.759 9.073 60.918 25.226 16.159 16.159 25.236 38.072 25.236 60.923v477.171c0 22.851-9.078 44.764-25.236 60.919s-38.072 25.229-60.918 25.229h-116.582c-25.452 0-46.083-20.631-46.083-46.080s20.631-46.080 46.083-46.080h110.577v-465.147h-549.053v465.147z" />
<glyph unicode="&#xe93a;" glyph-name="dots" horiz-adv-x="4096" d="M853.334 533.334c0-235.643-191.025-426.668-426.668-426.668-235.641 0-426.666 191.025-426.666 426.668 0 235.641 191.025 426.666 426.666 426.666 235.643 0 426.668-191.025 426.668-426.666zM2491.74 533.334c0-235.643-191.037-426.668-426.68-426.668-235.635 0-426.66 191.025-426.66 426.668 0 235.641 191.025 426.666 426.66 426.666 235.643 0 426.68-191.025 426.68-426.666zM4095.939 533.334c0-235.643-191.037-426.668-426.68-426.668s-426.66 191.025-426.66 426.668c0 235.641 191.017 426.666 426.66 426.666s426.68-191.025 426.68-426.666z" />
<glyph unicode="&#xe93b;" glyph-name="clap" horiz-adv-x="1088" d="M353.622 412.656c-4.634 0-9.405 1.792-12.912 5.245l-34.497 33.926c-26.806 26.362-26.806 69.286 0 95.651 26.807 26.362 70.452 26.362 97.258 0l46.426-45.658c7.158-7.040 7.158-18.358 0-25.398s-18.666-7.040-25.824 0l-46.426 45.658c-12.63 12.422-32.979 12.422-45.61 0-6.035-5.933-9.405-13.939-9.405-22.358s3.37-16.426 9.405-22.362l34.496-33.926c7.155-7.037 7.155-18.355 0-25.395-3.651-3.59-8.282-5.382-12.912-5.382zM353.622 406.256c-6.221 0-12.63 2.39-17.402 7.082l-34.494 33.926c-29.356 28.87-29.356 75.907 0 104.778 29.298 28.813 76.939 28.813 106.235 0l46.426-45.658c9.706-9.549 9.706-24.976 0-34.525-9.648-9.488-25.152-9.488-34.8 0l-46.426 45.658c-10.141 9.974-26.496 9.974-36.637 0-4.819-4.739-7.491-11.104-7.491-17.795s2.672-13.059 7.491-17.798l34.496-33.926c9.709-9.546 9.709-24.976 0-34.522-4.848-4.768-11.091-7.219-17.398-7.219zM340.71 417.901c3.507-3.453 8.278-5.245 12.912-5.245 4.63 0 9.261 1.792 12.912 5.382 7.155 7.040 7.155 18.358 0 25.395l-34.496 33.926c-6.035 5.936-9.405 13.942-9.405 22.362s3.37 16.426 9.405 22.358c12.63 12.422 32.979 12.422 45.61 0l46.426-45.658c7.158-7.040 18.666-7.040 25.824 0s7.158 18.358 0 25.398l-46.426 45.658c-26.806 26.362-70.451 26.362-97.258 0-26.806-26.365-26.806-69.29 0-95.651l34.497-33.926zM603.574 307.341c-4.634 0-9.405 1.795-12.912 5.245l-178.518 175.568c-26.806 26.365-26.806 69.29 0 95.651 26.803 26.365 70.451 26.365 97.258 0l202.378-199.034c7.158-7.037 7.158-18.355 0-25.395s-18.666-7.040-25.824 0l-202.518 199.034c-12.63 12.422-32.979 12.422-45.61 0-12.634-12.422-12.634-32.435 0-44.858l178.518-175.571c7.155-7.037 7.155-18.355 0-25.395-3.51-3.45-8.141-5.245-12.771-5.245zM483.437 558.41l202.518-199.034c7.158-7.040 18.666-7.040 25.824 0s7.158 18.358 0 25.395l-202.378 199.034c-26.806 26.365-70.454 26.365-97.258 0-26.806-26.362-26.806-69.286 0-95.651l178.518-175.568c3.507-3.45 8.278-5.245 12.912-5.245 4.63 0 9.261 1.795 12.771 5.245 7.155 7.040 7.155 18.358 0 25.395l-178.518 175.571c-12.634 12.422-12.634 32.435 0 44.858 12.63 12.422 32.979 12.422 45.61 0zM681.469 354.813l-202.518 199.030c-10.141 9.974-26.496 9.974-36.637 0.003-10.080-9.914-10.080-25.818 0-35.731l178.518-175.571c9.709-9.546 9.709-24.976 0-34.522-4.733-4.656-10.989-7.082-17.258-7.082-6.221 0-12.634 2.39-17.402 7.082l-178.518 175.568c-29.354 28.87-29.354 75.907 0 104.778 29.296 28.813 76.938 28.813 106.234 0l202.378-199.034c9.709-9.546 9.709-24.976 0-34.522-9.648-9.488-25.149-9.488-34.797 0zM460.704 166.976c-4.63 0-9.402 1.795-12.912 5.245l-165.297 162.566c-26.806 26.362-26.806 69.29 0 95.651 26.806 26.365 70.452 26.365 97.259 0l165.437-162.704c7.158-7.040 7.158-18.358 0-25.395-7.155-7.040-18.666-7.040-25.821 0l-165.581 162.704c-12.63 12.422-32.979 12.422-45.611 0s-12.631-32.438 0-44.861l165.438-162.704c7.158-7.037 7.158-18.355 0-25.395-3.648-3.45-8.282-5.107-12.912-5.107zM349.302 400.48c-10.141 9.971-26.496 9.971-36.636 0-10.081-9.917-10.081-25.818 0-35.734l165.436-162.704c9.709-9.546 9.709-24.976 0-34.522l-0.090-0.090c-4.906-4.64-11.142-6.854-17.309-6.854-6.221 0-12.63 2.39-17.398 7.082l-165.298 162.566c-29.356 28.87-29.356 75.907 0 104.778 29.296 28.813 76.937 28.813 106.236 0l165.437-162.704c9.706-9.546 9.706-24.976 0-34.522-9.648-9.488-25.149-9.491-34.797-0.003 0 0 0 0 0 0l-165.581 162.707zM519.37 242.339c7.155-7.040 18.666-7.040 25.821 0 7.158 7.037 7.158 18.355 0 25.395l-165.437 162.704c-26.806 26.365-70.452 26.365-97.259 0-26.806-26.362-26.806-69.29 0-95.651l165.297-162.566c3.51-3.45 8.282-5.245 12.912-5.245s9.264 1.658 12.912 5.107c7.158 7.040 7.158 18.358 0 25.395l-165.438 162.704c-12.631 12.422-12.631 32.438 0 44.861s32.98 12.422 45.611 0l165.581-162.704zM624.854-32.003c-69.331 0-138.662 25.949-191.43 77.846l-150.925 148.57c-12.912 12.698-20.069 29.677-20.069 47.757 0 18.083 7.157 35.059 20.069 47.757s30.174 19.738 48.56 19.738c18.384 0 35.648-7.040 48.557-19.738 7.158-7.040 7.158-18.358 0-25.395-7.155-7.040-18.666-7.040-25.821 0-12.634 12.422-32.982 12.422-45.613 0s-12.631-32.438 0-44.861l150.925-148.429c91.363-89.856 239.85-89.856 331.213 0 44.208 43.478 68.63 101.312 68.63 162.87s-24.422 119.392-68.63 162.87l-80.64 79.446c-2.947 2.899-6.736 4.416-10.947 4.416s-8-1.517-10.947-4.416c-19.088-18.771-19.088-49.414 0-68.323l70.144-68.986c7.158-7.040 7.158-18.355 0-25.395s-18.666-7.040-25.824 0l-70.144 68.982c-33.402 32.851-33.402 86.131 0 118.979 20.211 19.875 53.19 19.875 73.402 0l80.781-79.446c51.085-50.24 79.296-117.184 79.296-188.266 0-71.085-28.211-138.026-79.296-188.269-52.63-51.76-121.958-77.709-191.29-77.709zM428.934 41.28v0.003l-150.923 148.566c-0.001 0-0.002 0.003-0.002 0.003-14.125 13.891-21.98 32.509-21.98 52.317s7.855 38.426 21.982 52.32c14.123 13.891 33.003 21.574 53.048 21.574s38.922-7.683 53.046-21.574c9.706-9.546 9.706-24.976 0-34.522-9.648-9.488-25.152-9.488-34.8 0-10.141 9.971-26.496 9.971-36.636 0-10.081-9.917-10.081-25.818 0-35.734l150.924-148.429c88.874-87.405 233.366-87.405 322.24 0 42.998 42.288 66.717 98.483 66.717 158.307s-23.718 116.019-66.717 158.307l-0.006 0.003-80.634 79.443c-0.003 0-0.003 0-0.003 0.003-1.715 1.683-3.875 2.576-6.458 2.576s-4.746-0.896-6.458-2.579c-16.528-16.253-16.554-42.794 0.010-59.206 0-0.003 0.003-0.006 0.006-0.006l70.125-68.97c9.709-9.546 9.709-24.976 0-34.522-9.648-9.488-25.149-9.488-34.797 0l-70.144 68.986c-35.952 35.357-35.952 92.746 0 128.102 22.701 22.326 59.677 22.326 82.374 0l80.781-79.446c52.298-51.434 81.21-120.013 81.21-192.829s-28.912-141.398-81.21-192.832c-53.891-52.998-124.861-79.546-195.776-79.546-70.918 0-141.888 26.547-195.92 79.683zM687.786 408.106c-19.088 18.909-19.088 49.552 0 68.323 2.947 2.899 6.736 4.416 10.947 4.416s8-1.517 10.947-4.416l80.64-79.446c44.208-43.478 68.63-101.312 68.63-162.87s-24.422-119.392-68.63-162.87c-91.363-89.856-239.85-89.856-331.213 0l-150.925 148.429c-12.631 12.422-12.631 32.438 0 44.861s32.983 12.422 45.613 0c7.155-7.040 18.666-7.040 25.824 0 7.155 7.037 7.155 18.355 0 25.395-12.912 12.698-30.176 19.738-48.56 19.738-18.386 0-35.648-7.040-48.56-19.738s-20.069-29.674-20.069-47.757c0-18.080 7.157-35.059 20.069-47.757l150.925-148.57c52.768-51.898 122.099-77.846 191.43-77.846s138.659 25.949 191.29 77.709c51.085 50.243 79.296 117.184 79.296 188.269 0 71.082-28.211 138.026-79.296 188.266l-80.781 79.446c-20.211 19.875-53.19 19.875-73.402 0-33.402-32.848-33.402-86.128 0-118.979l70.144-68.982c7.158-7.040 18.666-7.040 25.824 0s7.158 18.355 0 25.395l-70.144 68.986zM661.68 514.179c-4.63 0-9.402 1.792-12.909 5.245l-46.426 45.658c-12.634 12.422-32.982 12.422-45.613 0-5.754-5.658-8.886-12.89-9.398-20.262l-30.179 26.307c3.299 7.011 7.885 13.578 13.754 19.35 26.806 26.365 70.454 26.365 97.261 0l46.422-45.658c7.158-7.040 7.158-18.358 0-25.395-3.507-3.59-8.278-5.245-12.912-5.245zM517.155 571.126l30.179-26.307c0.173 2.461 0.634 4.906 1.389 7.28 1.507 4.742 4.176 9.213 8.010 12.982 12.63 12.422 32.979 12.422 45.613 0l46.426-45.658c3.507-3.453 8.278-5.245 12.912-5.245 4.63 0 9.402 1.654 12.909 5.245 7.158 7.037 7.158 18.355 0 25.395l-46.422 45.658c-26.806 26.365-70.454 26.365-97.261 0-5.869-5.773-10.454-12.339-13.754-19.35zM552.826 531.542l-43.517 37.936 2.058 4.371c3.616 7.69 8.64 14.883 15.056 21.19 29.296 28.813 76.938 28.813 106.234 0l46.426-45.658c9.693-9.533 9.706-24.928 0.045-34.48-4.874-4.957-11.36-7.123-17.443-7.123-6.221 0-12.634 2.39-17.402 7.082l-46.426 45.658c-10.141 9.971-26.496 9.971-36.637 0-4.611-4.538-7.094-10.294-7.501-16.144l-0.893-12.832zM886.627 433.472c-4.634 0-9.405 1.795-12.912 5.245l-165.437 162.566c-12.634 12.422-32.982 12.422-45.613 0s-12.63-32.435 0-44.858l32.781-32.24c7.158-7.040 7.158-18.358 0-25.398-7.155-7.040-18.666-7.040-25.821 0l-32.784 32.243c-26.806 26.362-26.806 69.286 0 95.651 26.806 26.362 70.454 26.362 97.258 0l165.44-162.704c7.155-7.040 7.155-18.358 0-25.398-3.651-3.45-8.282-5.107-12.912-5.107zM703.789 596.72c-10.141 9.974-26.496 9.974-36.637 0-10.080-9.914-10.080-25.818 0-35.731l32.784-32.24c9.706-9.549 9.706-24.976 0-34.525-9.648-9.488-25.152-9.488-34.8 0l-32.781 32.243c-29.357 28.87-29.357 75.907 0 104.778 29.296 28.812 76.938 28.812 106.234 0l165.437-162.704c9.709-9.549 9.709-24.976 0-34.525l-0.090-0.086c-4.909-4.643-11.142-6.858-17.309-6.858-6.221 0-12.63 2.394-17.398 7.082 0 0 0 0 0 0l-165.44 162.566zM873.715 438.717c3.507-3.45 8.278-5.245 12.912-5.245 4.63 0 9.261 1.658 12.912 5.107 7.155 7.040 7.155 18.358 0 25.398l-165.44 162.704c-26.803 26.362-70.451 26.362-97.258 0-26.806-26.365-26.806-69.29 0-95.651l32.784-32.243c7.155-7.040 18.666-7.040 25.821 0 7.158 7.040 7.158 18.358 0 25.398l-32.781 32.24c-12.63 12.422-12.63 32.435 0 44.858s32.979 12.422 45.613 0l165.437-162.566zM844.925 92.246c-8.282 0-15.722 5.52-17.686 13.664-2.384 9.664 3.651 19.325 13.475 21.67 41.683 9.939 79.856 31.056 110.31 61.008 91.363 89.856 91.363 235.885 0 325.741l-43.981 43.254c-6.035 5.936-15.859 5.936-21.754 0-19.088-18.771-19.088-49.411 0-68.323l33.203-32.656c7.158-7.037 7.158-18.355 0-25.395s-18.666-7.040-25.824 0l-33.203 32.656c-33.402 32.848-33.402 86.128 0 118.979 20.208 19.875 53.19 19.875 73.398 0l43.843-43.12c51.085-50.24 79.296-117.184 79.296-188.266 0-71.085-28.211-138.026-79.296-188.269-35.226-34.643-79.296-59.072-127.434-70.531-1.402-0.275-2.806-0.413-4.349-0.413zM839.226 133.805l0.003 0.003c40.55 9.667 77.686 30.211 107.309 59.344 88.813 87.347 88.813 229.267 0 316.614l-43.984 43.254c-3.574 3.517-9.36 3.44-12.723 0.054l-0.054-0.054c-16.525-16.253-16.55-42.79 0.010-59.206 0.003 0 0.006-0.003 0.006-0.006l33.187-32.64c9.709-9.546 9.709-24.976 0-34.522-9.648-9.488-25.149-9.488-34.797 0l-33.203 32.656c-35.952 35.357-35.952 92.746 0 128.102 22.698 22.326 59.674 22.326 82.374 0l43.84-43.117c52.298-51.43 81.21-120.013 81.21-192.829s-28.912-141.398-81.21-192.832c-36.054-35.459-81.162-60.467-130.438-72.192l-0.246-0.058v0.003c-1.821-0.358-3.638-0.534-5.584-0.534-11.069 0-21.2 7.382-23.904 18.547-3.254 13.219 5.046 26.269 18.205 29.411zM827.238 105.91c1.965-8.144 9.405-13.664 17.686-13.664 1.542 0 2.947 0.138 4.349 0.413 48.138 11.459 92.208 35.888 127.434 70.531 51.085 50.243 79.296 117.184 79.296 188.269 0 71.082-28.211 138.026-79.296 188.266l-43.84 43.12c-20.211 19.875-53.194 19.875-73.402 0-33.402-32.851-33.402-86.131 0-118.979l33.203-32.656c7.158-7.040 18.666-7.040 25.824 0s7.158 18.358 0 25.395l-33.203 32.656c-19.088 18.912-19.088 49.552 0 68.323 5.894 5.936 15.718 5.936 21.754 0l43.981-43.254c91.363-89.856 91.363-235.885 0-325.741-30.454-29.952-68.627-51.069-110.31-61.008-9.824-2.346-15.859-12.006-13.475-21.67zM334.362 747.002c-6.176 0-12.349 3.175-15.719 8.834l-35.507 58.799c-5.193 8.557-2.245 19.461 6.316 24.569 8.701 5.107 19.789 2.208 24.981-6.211l35.507-58.799c5.194-8.558 2.246-19.462-6.314-24.569-2.81-1.794-6.035-2.623-9.264-2.623zM289.451 839.204c-8.561-5.107-11.508-16.011-6.316-24.569l35.507-58.799c3.367-5.659 9.543-8.834 15.719-8.834 3.229 0 6.454 0.828 9.264 2.623 8.56 5.107 11.507 16.011 6.314 24.569l-35.507 58.799c-5.193 8.42-16.28 11.318-24.981 6.211zM313.155 752.544l-35.491 58.771c-0.001 0.002-0.003 0.004-0.004 0.007-7.103 11.715-2.976 26.525 8.512 33.379l0.039 0.023c11.74 6.891 26.672 2.973 33.668-8.371l0.031-0.051 35.5-58.787c0-0.002 0.003-0.004 0.003-0.007 7.088-11.686 2.998-26.452-8.429-33.328-3.923-2.484-8.339-3.577-12.624-3.577-8.272 0-16.607 4.229-21.207 11.942zM491.139 792.002c-9.824 0-17.965 7.729-18.246 17.391l-2.246 68.323c-0.278 9.938 7.581 18.22 17.686 18.495 10.102 0.276 18.525-7.453 18.803-17.391l2.246-68.323c0.282-9.938-7.578-18.22-17.683-18.495-0.141 0-0.419 0-0.56 0zM411.418 773.778c-8.282 0-15.859 5.659-17.683 13.941l-28.070 118.288c-2.246 9.662 3.789 19.324 13.613 21.532s19.648-3.727 21.894-13.388l28.070-118.288c2.243-9.662-3.792-19.324-13.616-21.532-1.402-0.414-2.806-0.552-4.208-0.552zM365.664 906.007l28.067-118.288c1.827-8.282 9.405-13.941 17.686-13.941 1.402 0 2.806 0.138 4.208 0.552 9.824 2.208 15.859 11.87 13.613 21.532l-28.067 118.288c-2.246 9.662-12.070 15.597-21.894 13.388s-15.859-11.87-13.613-21.532zM387.494 786.288l-28.058 118.242c-3.053 13.139 5.165 26.27 18.435 29.254 13.091 2.943 26.445-4.934 29.53-18.169 0-0.005 0 0.005 0 0l28.064-118.274c3.040-13.074-5.082-26.139-18.237-29.208-2.077-0.587-4.051-0.754-5.811-0.754-11.078 0-21.392 7.543-23.923 18.909zM75.707 351.706c-8.28 0-15.859 5.661-17.824 13.942-2.245 9.661 3.93 19.322 13.754 21.53l67.787 15.322c9.824 2.208 19.648-3.866 21.894-13.526s-3.93-19.325-13.754-21.533l-67.787-15.318c-1.263-0.278-2.666-0.416-4.070-0.416zM147.992 527.542c-1.684 0-3.368 0.275-5.052 0.691l-66.804 18.909c-9.684 2.758-15.298 12.698-12.491 22.221s12.912 15.046 22.596 12.285l66.804-18.909c9.684-2.762 15.298-12.698 12.491-22.224-2.386-7.866-9.684-12.973-17.543-12.973zM141.252 447.354c-0.561 0-0.982 0-1.544 0l-122.942 10.077c-10.105 0.829-17.543 9.523-16.701 19.322 0.842 9.939 9.684 17.254 19.648 16.426l122.942-10.077c10.105-0.826 17.543-9.523 16.701-19.322-0.702-9.248-8.701-16.426-18.105-16.426z" />
<glyph unicode="&#xe93c;" glyph-name="balloon" horiz-adv-x="838" d="M688.207-64c-7.359 0-14.364 3.072-19.866 8.602l-260.803 264.467h-317.772c-49.491 0-89.766 45.94-89.766 102.4v546.132c0 56.457 40.275 102.4 89.766 102.4h658.284c49.492 0 89.768-45.943 89.768-102.4v-546.132c0-56.46-40.276-102.4-89.768-102.4h-29.919v-238.936c0-13.447-6.945-25.665-17.655-31.13-3.831-1.978-7.959-3.002-12.269-3.002zM89.766 891.733c-16.517 0-29.922-15.292-29.922-34.133v-546.132c0-18.842 13.405-34.136 29.922-34.136h329.143c7.361 0 14.423-3.072 19.928-8.667l219.451-222.552v197.087c0 18.842 13.405 34.132 29.919 34.132h59.843c16.519 0 29.924 15.295 29.924 34.136v546.132c0 18.842-13.405 34.133-29.924 34.133h-658.284z" />
</font>
</defs>
</svg>
